<?xml version="1.0" standalone="no"?>
<!DOCTYPE svg PUBLIC "-//W3C//DTD SVG 1.1//EN" "http://www.w3.org/Graphics/SVG/1.1/DTD/svg11.dtd" >
<svg xmlns="http://www.w3.org/2000/svg" xmlns:xlink="http://www.w3.org/1999/xlink" version="1.1">
<metadata>
Created by FontForge 20170731 at Tue Jul  4 13:14:06 2023
 By Aleksey,,,
Copyright (c) 1988, 1990, 1991, 2002 Adobe Systems Incorporated.  All Rights Reserved. (c) 1981, 2002 Heidelberger Druckmaschinen AG. All rights reserved.
</metadata>
<defs>
<font id="HelveticaLTStd-UltraComp" horiz-adv-x="681" >
  <font-face 
    font-family="Helvetica LT Std UltCompressed"
    font-weight="400"
    font-stretch="ultra-condensed"
    units-per-em="2048"
    panose-1="2 11 6 8 2 2 2 6 2 4"
    ascent="1638"
    descent="-410"
    x-height="1171"
    cap-height="1458"
    bbox="-342 -512 2048 1894"
    underline-thickness="102"
    underline-position="-307"
    unicode-range="U+0020-FB02"
  />
<missing-glyph horiz-adv-x="1024" 
d="M0 0v1434h1024v-1434h-1024zM512 809l348 522h-696zM573 717l349 -522v1044zM164 102h696l-348 523zM102 1239v-1044l349 522z" />
    <glyph glyph-name="fi" unicode="fi" horiz-adv-x="645" 
d="M606 1458v-209h-196v209h196zM606 0h-196v1171h196v-1171zM72 0v1016h-62v155h62v148q0 66 31.5 102.5t115.5 36.5h111v-155h-27q-35 -2 -35 -60v-72h62v-155h-62v-1016h-196z" />
    <glyph glyph-name="fl" unicode="fl" horiz-adv-x="645" 
d="M606 0h-196v1458h196v-1458zM72 0v1016h-62v155h62v148q0 66 31.5 102.5t115.5 36.5h111v-155h-27q-35 -2 -35 -60v-72h62v-155h-62v-1016h-196z" />
    <glyph glyph-name=".notdef" horiz-adv-x="1024" 
d="M0 0v1434h1024v-1434h-1024zM512 809l348 522h-696zM573 717l349 -522v1044zM164 102h696l-348 523zM102 1239v-1044l349 522z" />
    <glyph glyph-name=".null" horiz-adv-x="0" 
 />
    <glyph glyph-name="nonmarkingreturn" horiz-adv-x="682" 
 />
    <glyph glyph-name="space" unicode=" " horiz-adv-x="339" 
 />
    <glyph glyph-name="exclam" unicode="!" horiz-adv-x="417" 
d="M311 313h-205v1145h205v-1145zM311 0h-205v227h205v-227z" />
    <glyph glyph-name="quotedbl" unicode="&#x22;" 
d="M403 903v555h181v-555h-181zM96 903v555h180v-555h-180z" />
    <glyph glyph-name="numbersign" unicode="#" 
d="M700 590v-152h-151l-51 -438h-138l52 438h-199l-51 -438h-135l49 438h-146v152h166l31 278h-147v152h165l54 438h135l-51 -438h198l51 438h136l-50 -438h134v-152h-152l-31 -278h131zM463 868h-199l-31 -278h199z" />
    <glyph glyph-name="dollar" unicode="$" 
d="M403 1516v-93q93 3 158 -59q66 -63 66 -156v-297h-217v250q0 57 -12 72.5t-54 15.5q-37 0 -52.5 -14t-15.5 -43v-145q0 -28 14 -57t58 -85l191 -241q53 -68 70.5 -118t17.5 -128v-199q-13 -104 -64 -158t-168 -61v-104h-114v104q-114 -6 -175 59q-53 59 -53 162v316h217
v-250q0 -23 0.5 -36.5t4.5 -30t11.5 -25.5t22 -15t35.5 -6q59 0 59 64v147q0 25 -1.5 39t-10 35t-26.5 45l-275 373q-37 52 -37 141v174q20 100 77 156t159 75v93h114z" />
    <glyph glyph-name="percent" unicode="%" horiz-adv-x="1024" 
d="M33 825v367q0 51 5 89.5t19 73t37.5 56.5t62 34.5t91.5 12.5q84 0 144 -40t71 -122v-458q-4 -91 -63.5 -139t-159.5 -48q-95 0 -151 41.5t-56 132.5zM199 1260v-398v-27t2.5 -21.5t8 -20t16 -10.5t26.5 -5q11 0 19 3t13 10.5t8 13.5t4 18l1.5 18t0 19.5t-0.5 16.5v360
v12.5v14t-0.5 14t-1.5 14t-3 12t-5.5 11.5t-8 8t-11.5 6t-15 2q-34 0 -43.5 -16.5t-9.5 -54.5zM561 174v367q0 51 5 89.5t19 73t37.5 56.5t62 34.5t91.5 12.5q84 0 144 -40t71 -122v-459q-4 -91 -63.5 -138.5t-159.5 -47.5q-95 0 -151 41.5t-56 132.5zM727 608v-397v-27
t2.5 -21.5t8 -20t16 -10.5t26.5 -5q11 0 19 3t13 10.5t8 13t4 17.5l1.5 18t0 19.5t-0.5 16.5v361v12.5v14t-0.5 14t-1.5 14t-3 12t-5.5 11.5t-8 8t-11.5 6t-15 2q-34 0 -43.5 -17t-9.5 -55zM326 -16h-99l478 1491h98z" />
    <glyph glyph-name="ampersand" unicode="&#x26;" horiz-adv-x="796" 
d="M283 621v-357q0 -80 30.5 -105.5t92.5 -25.5q50 0 63 19q-128 252 -180 469h-6zM440 1073v207q0 57 -63 57q-37 0 -51.5 -16t-14.5 -64v-198q0 -57 37 -111q26 17 42.5 30t33 39.5t16.5 55.5zM539 778h190v-518q0 -38 -22 -106h71v-154h-131q-46 0 -76 27
q-73 -56 -198 -56q-129 0 -218 83t-89 212v289q0 210 129 283q-51 62 -65.5 140t-14.5 189q0 81 11.5 136t41.5 98.5t85.5 64.5t139.5 21q75 0 123.5 -19t74.5 -59.5t36 -93t10 -131.5q0 -132 -47 -218.5t-178 -170.5q66 -164 123 -394h4v377z" />
    <glyph glyph-name="quotesingle" unicode="'" horiz-adv-x="454" 
d="M137 903v555h180v-555h-180z" />
    <glyph glyph-name="parenleft" unicode="(" horiz-adv-x="342" 
d="M201 1458h178q-172 -396 -172 -796q0 -502 182 -861h-180q-182 341 -182 861q0 396 174 796z" />
    <glyph glyph-name="parenright" unicode=")" horiz-adv-x="342" 
d="M-37 1458h178q174 -400 174 -796q0 -520 -182 -861h-180q182 359 182 861q0 400 -172 796z" />
    <glyph glyph-name="asterisk" unicode="*" horiz-adv-x="645" 
d="M453 930l-134 170l-129 -170l-92 63l138 166l-205 98l45 89l192 -86v198h107v-196l194 84l45 -89l-211 -96l142 -168z" />
    <glyph glyph-name="plus" unicode="+" horiz-adv-x="1024" 
d="M424 676v411h180v-411h410v-180h-410v-412h-180v412h-414v180h414z" />
    <glyph glyph-name="comma" unicode="," horiz-adv-x="339" 
d="M152 -256h-121l65 483h205z" />
    <glyph glyph-name="hyphen" unicode="-" horiz-adv-x="339" 
d="M41 541v147h260v-147h-260z" />
    <glyph glyph-name="period" unicode="." horiz-adv-x="339" 
d="M272 0h-204v227h204v-227z" />
    <glyph glyph-name="slash" unicode="/" horiz-adv-x="569" 
d="M479 1487h109l-500 -1516h-108z" />
    <glyph glyph-name="zero" unicode="0" 
d="M57 266v916q0 162 70 227.5t213 65.5t214 -66t71 -227v-916q0 -144 -74 -213t-221 -69q-123 0 -198 71.5t-75 210.5zM274 1208v-934q0 -20 1 -33.5t5 -30.5t11 -27.5t20.5 -17.5t32.5 -7q64 0 64 108v942q0 42 -19.5 67t-52.5 25q-26 0 -44 -25.5t-18 -66.5z" />
    <glyph glyph-name="one" unicode="1" 
d="M98 1116v152q100 15 150 56t49 134h178v-1458h-217v1116h-160z" />
    <glyph glyph-name="two" unicode="2" 
d="M295 174h321v-174h-559v92q0 100 26 202t65 182t84.5 163.5t84.5 150t65 138t26 129.5v135q0 58 -14 83t-46 25q-74 0 -74 -108v-256h-217v229q0 167 75 238.5t241 71.5q61 0 106.5 -19t72.5 -49.5t44 -75.5t23 -90.5t6 -101.5q0 -112 -33 -223t-80.5 -201.5
t-95.5 -176.5t-83 -181t-38 -183z" />
    <glyph glyph-name="three" unicode="3" 
d="M57 537h217v-224q0 -51 5.5 -84t15.5 -47.5t18.5 -19t20.5 -4.5q37 0 55.5 21t18.5 91v265q0 62 -25.5 89t-75.5 27h-33v174q78 -6 106 31.5t28 112.5v131q-1 18 -1 43.5v42t-1.5 36.5t-5 32.5t-10 24t-17 16.5t-25.5 5q-20 0 -34 -7t-21.5 -16t-11.5 -25.5t-4.5 -28.5
t-1 -32.5t-1.5 -29.5v-221h-217v238q0 162 72 229.5t219 67.5q277 0 277 -285v-236q0 -80 -36.5 -135t-135.5 -78v-8q59 -19 95 -41t52 -50t20.5 -52.5t4.5 -65.5v-245q0 -85 -20 -144t-59 -91.5t-88 -46t-116 -13.5q-86 0 -143.5 23.5t-88 72t-42 107.5t-11.5 143v207z" />
    <glyph glyph-name="four" unicode="4" 
d="M276 1458h308v-913h86v-174h-86v-371h-207v371h-365v151zM193 545h184v729h-4q-77 -407 -180 -729z" />
    <glyph glyph-name="five" unicode="5" 
d="M57 537h217v-273q0 -25 2 -40.5t9 -32.5t23 -25t42 -8q36 0 47 27.5t11 78.5v365q0 98 -66 98q-53 0 -61 -45h-215v776h544v-174h-327v-432q81 63 159 63q44 0 77 -15.5t53 -40.5t32 -62t16.5 -75t4.5 -85v-354q0 -67 -13 -117.5t-44 -93.5t-90.5 -65.5t-145.5 -22.5
q-56 0 -103 12.5t-87 39.5t-62.5 76.5t-22.5 118.5v306z" />
    <glyph glyph-name="six" unicode="6" 
d="M625 657v-387q0 -63 -11 -109.5t-40.5 -89t-88.5 -65t-147 -22.5q-139 0 -210 68.5t-71 201.5v928q0 293 287 293q150 0 215.5 -76t65.5 -225v-240h-217v274q0 45 -13 68.5t-53 23.5q-41 0 -54.5 -23.5t-13.5 -68.5v-389q30 31 74 50.5t88 19.5q189 0 189 -232zM408 252
v354q0 42 -15 64t-55 22q-64 0 -64 -86v-325q0 -24 0.5 -36.5t4 -32t11 -29t21.5 -17.5t35 -8q27 0 42 16t17.5 33t2.5 45z" />
    <glyph glyph-name="seven" unicode="7" 
d="M41 1284v174h602v-180l-317 -1278h-232l332 1284h-385z" />
    <glyph glyph-name="eight" unicode="8" 
d="M57 250v272q0 44 6 75t23 63t54 55t93 37v4q-98 6 -135.5 61t-40.5 152v227q0 64 18 114.5t46 80.5t65.5 49.5t73 27t72.5 7.5q56 0 105 -14.5t92 -45.5t68 -87t26 -132l2 -205q0 -41 -8 -78t-26 -72.5t-53.5 -58t-84.5 -26.5v-4q88 -24 130 -71.5t42 -94.5v-367
q0 -106 -79 -170.5t-212 -64.5q-129 0 -203 69.5t-74 196.5zM408 262v313q0 33 -16 56.5t-52 23.5q-66 0 -66 -80v-313q0 -104 70 -104q22 0 35.5 9.5t19.5 27t7.5 32t1.5 35.5zM408 942v264q0 55 -14.5 74.5t-51.5 19.5t-51.5 -24.5t-16.5 -69.5v-258q0 -57 15.5 -75.5
t56.5 -18.5q62 0 62 88z" />
    <glyph glyph-name="nine" unicode="9" 
d="M57 723v477q0 63 11 110t40.5 89.5t88.5 65t147 22.5q139 0 210 -68.5t71 -201.5v-928q0 -293 -287 -293q-150 0 -215.5 76t-65.5 225v145h217v-180q0 -45 13 -68.5t53 -23.5q41 0 54.5 23.5t13.5 68.5v299q-29 -31 -73.5 -50t-88.5 -19q-29 0 -53 4.5t-50.5 19.5
t-44.5 39.5t-29.5 67.5t-11.5 100zM274 1219v-445q0 -42 15 -64t55 -22q64 0 64 86v416q0 24 -0.5 36.5t-4 32t-11 29t-21.5 17.5t-35 8q-27 0 -42 -16t-17.5 -33t-2.5 -45z" />
    <glyph glyph-name="colon" unicode=":" horiz-adv-x="339" 
d="M272 0h-204v227h204v-227zM272 840h-204v227h204v-227z" />
    <glyph glyph-name="semicolon" unicode=";" horiz-adv-x="339" 
d="M137 -256h-121l66 483h205zM272 840h-204v227h204v-227z" />
    <glyph glyph-name="less" unicode="&#x3c;" horiz-adv-x="1024" 
d="M961 281v-154l-895 391v135l895 391v-153l-695 -305z" />
    <glyph glyph-name="equal" unicode="=" horiz-adv-x="1024" 
d="M1014 885v-180h-1004v180h1004zM1014 467v-180h-1004v180h1004z" />
    <glyph glyph-name="greater" unicode="&#x3e;" horiz-adv-x="1024" 
d="M63 891v153l895 -391v-135l-895 -393v156l693 305z" />
    <glyph glyph-name="question" unicode="?" 
d="M287 942h-197v324q0 221 244 221q128 0 193 -55.5t65 -200.5v-164q0 -115 -23 -160l-100 -196q-23 -45 -23 -170v-228h-204v312q0 79 22 127l96 194q35 75 35 121v203q0 44 -9.5 58.5t-45.5 14.5q-30 0 -41.5 -17t-11.5 -62v-322zM446 0h-204v227h204v-227z" />
    <glyph glyph-name="at" unicode="@" horiz-adv-x="1638" 
d="M748 455q73 0 136.5 54.5t97.5 132.5t34 153q0 74 -47.5 127t-114.5 53q-57 0 -109.5 -31.5t-87 -81t-55 -108t-20.5 -113.5q0 -82 45.5 -134t120.5 -52zM1077 999l35 115h156l-140 -536q-38 -140 21 -140q94 0 175 118.5t81 274.5q0 159 -76 276t-200 174.5t-279 57.5
q-173 0 -308.5 -80.5t-209.5 -220.5t-74 -313q0 -176 79.5 -315t219 -215t313.5 -76q133 0 253.5 50t201.5 140h160q-102 -160 -267 -249t-356 -89q-160 0 -303 58t-247 158.5t-165 242t-61 301.5q0 157 61 297.5t164 241t244.5 159t296.5 58.5q138 0 265 -46t222.5 -126
t153 -198t57.5 -253q0 -114 -36 -213.5t-92 -165.5t-123.5 -114t-130.5 -70t-113 -22t-84 31t-37 89h-4q-48 -51 -109 -85.5t-121 -34.5q-129 0 -219 99.5t-90 237.5q0 133 55 252.5t160 197t236 77.5q160 0 235 -144z" />
    <glyph glyph-name="A" unicode="A" 
d="M276 586h113l-45 606h-14zM12 0l166 1458h326l166 -1458h-219l-41 395h-154l-47 -395h-197z" />
    <glyph glyph-name="B" unicode="B" 
d="M274 1292v-438h50q42 0 59.5 23.5t17.5 85.5v221q0 62 -17.5 85t-59.5 23h-50zM57 0v1458h308q126 0 189.5 -70t63.5 -192v-231q-1 -89 -49 -130t-151 -65v-4q57 -11 91 -24t63 -37.5t41 -65t12 -100.5v-232q0 -138 -66 -222.5t-197 -84.5h-305zM274 680v-506h43
q48 0 69.5 25t21.5 90v276q0 65 -21.5 90t-69.5 25h-43z" />
    <glyph glyph-name="C" unicode="C" 
d="M625 926h-217v297q0 53 -15.5 71.5t-50.5 18.5q-36 0 -52 -18.5t-16 -71.5v-987q0 -53 16 -72t52 -19q34 0 50 19t16 72v315h217v-334q0 -68 -25 -118t-67.5 -77t-90.5 -39t-102 -12t-101 12.5t-89.5 39t-67.5 76.5t-25 118v1024q0 68 25 118t67.5 76.5t89.5 39t101 12.5
t102 -12t90.5 -39t67.5 -77t25 -118v-315z" />
    <glyph glyph-name="D" unicode="D" 
d="M57 0v1458h262q166 0 236 -71.5t70 -258.5v-864q0 -110 -68.5 -187t-189.5 -77h-310zM274 1284v-1110h52q45 0 63.5 21t18.5 88v893q0 66 -18.5 87t-63.5 21h-52z" />
    <glyph glyph-name="E" unicode="E" horiz-adv-x="569" 
d="M551 0h-488v1458h484v-190h-266v-375h256v-191h-256v-512h270v-190z" />
    <glyph glyph-name="F" unicode="F" horiz-adv-x="569" 
d="M281 0h-218v1458h488v-190h-270v-375h260v-191h-260v-702z" />
    <glyph glyph-name="G" unicode="G" 
d="M322 727h303v-727h-109l-6 92h-4q-29 -59 -80.5 -90t-116.5 -31q-42 0 -83 12.5t-80.5 39t-64 77t-24.5 117.5v1024q0 68 25 118t67.5 76.5t89.5 39t101 12.5t102 -12t90.5 -39t67.5 -77t25 -118v-309h-217v291q0 53 -15.5 71.5t-50.5 18.5q-36 0 -52 -18.5t-16 -71.5
v-987q0 -53 16 -72t52 -19q34 0 50 19t16 72v317h-86v174z" />
    <glyph glyph-name="H" unicode="H" 
d="M281 0h-218v1458h218v-559h120v559h217v-1458h-217v709h-120v-709z" />
    <glyph glyph-name="I" unicode="I" horiz-adv-x="342" 
d="M279 0h-218v1458h218v-1458z" />
    <glyph glyph-name="J" unicode="J" 
d="M401 1458h217v-1237q0 -69 -26 -120t-69 -78t-90.5 -39.5t-98.5 -12.5q-119 0 -197 77t-74 196v311h218v-305q0 -34 5 -56.5t15 -32.5t19 -13t22 -3q27 0 43 20t16 85v1208z" />
    <glyph glyph-name="K" unicode="K" 
d="M281 0h-218v1458h218v-657h6l166 657h211l-166 -665l170 -793h-224l-157 739h-6v-739z" />
    <glyph glyph-name="L" unicode="L" horiz-adv-x="569" 
d="M557 0h-494v1458h218v-1268h276v-190z" />
    <glyph glyph-name="M" unicode="M" horiz-adv-x="985" 
d="M592 0h-199l-78 702q-6 57 -24.5 237.5t-26.5 250.5h-8q1 -24 4.5 -129t3.5 -156v-905h-190v1458h321l70 -602q33 -245 35 -455h10q2 42 5 148.5t6.5 179.5t8.5 125l60 604h321v-1458h-190v672q0 273 8 518h-8q-7 -62 -28.5 -299t-24.5 -262z" />
    <glyph glyph-name="N" unicode="N" horiz-adv-x="796" 
d="M63 1458h326l62 -420q75 -413 102 -825h8v78q1 77 -2.5 221.5t-3.5 204.5v741h178v-1458h-321l-103 729q-12 63 -23 138t-15.5 117.5t-14 138.5t-12.5 122h-8q0 -5 6 -188v-1057h-179v1458z" />
    <glyph glyph-name="O" unicode="O" 
d="M274 1223v-987q0 -53 16 -72t52 -19q34 0 50 19t16 72v987q0 53 -15.5 71.5t-50.5 18.5q-36 0 -52 -18.5t-16 -71.5zM57 217v1024q0 68 25 118t67.5 76.5t89.5 39t101 12.5t102 -12t90.5 -39t67.5 -77t25 -118v-1024q0 -68 -25 -118t-67.5 -77t-90.5 -39t-102 -12
t-101 12.5t-89.5 39t-67.5 76.5t-25 118z" />
    <glyph glyph-name="P" unicode="P" 
d="M625 1174v-316q0 -149 -66.5 -224t-193.5 -75h-91v-559h-217v1458h228q175 0 257.5 -64.5t82.5 -219.5zM274 1284v-551q32 0 49 1t40.5 7t34 20.5t10.5 37.5v346q0 77 -20.5 108t-74.5 31h-39z" />
    <glyph glyph-name="Q" unicode="Q" 
d="M274 1223v-987q0 -53 16 -72t52 -19q34 0 50 19t16 72v987q0 53 -15.5 71.5t-50.5 18.5q-36 0 -52 -18.5t-16 -71.5zM57 217v1024q0 68 25 118t67.5 76.5t89.5 39t101 12.5t102 -12t90.5 -39t67.5 -77t25 -118v-1024q0 -142 -109 -203q0 -14 33 -14h96v-162h-110
q-73 0 -97 35.5t-28 106.5q-3 -1 -10 -2.5t-13.5 -2.5t-11.5 -2q-10 -2 -35 -2q-54 0 -101 12.5t-89.5 39t-67.5 76.5t-25 118z" />
    <glyph glyph-name="R" unicode="R" 
d="M274 0h-217v1458h287q138 0 209.5 -57.5t71.5 -192.5v-207q0 -45 -8 -78t-30 -64t-66 -50.5t-111 -26.5v-4q41 -5 72.5 -14.5t62.5 -28.5t49.5 -53t21.5 -82q4 -66 6 -186.5t7.5 -222.5t21.5 -191h-217q-13 59 -19.5 141t-7.5 129.5t0 158.5t1 128q0 67 -30 94.5
t-104 24.5v-676zM274 1284v-430h41q53 0 73 24.5t20 69.5v264q0 72 -82 72h-52z" />
    <glyph glyph-name="S" unicode="S" 
d="M274 553v-317q0 -53 16 -72t52 -19q34 0 50 19t16 72v153q0 48 -26 102.5t-65 102.5l-84.5 104t-84.5 107t-65 111t-26 116v209q0 68 25 118t67.5 76.5t89.5 39t101 12.5t102 -12t90.5 -39t67.5 -77t25 -118v-307h-217v289q0 53 -15.5 71.5t-50.5 18.5q-36 0 -52 -18.5
t-16 -71.5v-181q0 -34 55 -112t120.5 -155.5t120.5 -164t55 -135.5v-258q0 -68 -25 -118t-67.5 -77t-90.5 -39t-102 -12t-101 12.5t-89.5 39t-67.5 76.5t-25 118v336h217z" />
    <glyph glyph-name="T" unicode="T" horiz-adv-x="645" 
d="M25 1458h596v-190h-189v-1268h-217v1268h-190v190z" />
    <glyph glyph-name="U" unicode="U" 
d="M408 1458h217v-1241q0 -68 -25 -118t-67.5 -77t-90.5 -39t-102 -12t-101 12.5t-89.5 39t-67.5 76.5t-25 118v1241h217v-1222q0 -53 16 -72t52 -19q34 0 50 19t16 72v1222z" />
    <glyph glyph-name="V" unicode="V" 
d="M8 1458h217l68 -608q8 -72 24.5 -287t24.5 -287h4q7 103 23.5 296.5t19.5 228.5l66 657h217l-172 -1458h-328z" />
    <glyph glyph-name="W" unicode="W" horiz-adv-x="985" 
d="M406 0h-252l-134 1458h220l45 -530q21 -297 26 -516h11q0 67 2.5 147t5.5 133t8.5 150.5t7.5 136.5l49 479h236l45 -575q8 -101 22 -471h11q1 27 4.5 133.5t7.5 172t10 122.5l55 618h177l-146 -1458h-235l-37 524q-2 71 -14.5 264t-12.5 299h-10q-9 -80 -20.5 -240.5
t-20.5 -240.5z" />
    <glyph glyph-name="X" unicode="X" 
d="M205 0h-203l182 737l-166 721h226q1 -6 12 -55.5t13 -59.5t11.5 -55t12 -59.5t10.5 -55t11.5 -60t9 -55t9 -60.5t7 -55.5t6.5 -59.5h6q11 164 86 440l35 135h203l-176 -665l180 -793h-223l-78 352q-11 50 -22.5 122.5t-17.5 118t-7 44.5q-3 -97 -22 -198.5t-56 -243
t-49 -195.5z" />
    <glyph glyph-name="Y" unicode="Y" 
d="M8 1458h223l72 -317q9 -42 15 -71t10 -58.5t6.5 -47.5t7 -62t8.5 -77h4q10 195 37 305l78 328h203l-223 -903v-555h-218v545z" />
    <glyph glyph-name="Z" unicode="Z" horiz-adv-x="530" 
d="M27 1458h477v-160l-254 -1108h256v-190h-483v152l251 1116h-247v190z" />
    <glyph glyph-name="bracketleft" unicode="[" horiz-adv-x="454" 
d="M426 -199h-365v1657h365v-143h-184v-1370h184v-144z" />
    <glyph glyph-name="backslash" unicode="\" horiz-adv-x="569" 
d="M-117 1487h111l692 -1516h-115z" />
    <glyph glyph-name="bracketright" unicode="]" horiz-adv-x="454" 
d="M29 -199v144h184v1370h-184v143h364v-1657h-364z" />
    <glyph glyph-name="asciicircum" unicode="^" horiz-adv-x="1024" 
d="M205 631h-185l408 827h168l408 -827h-185l-307 639z" />
    <glyph glyph-name="underscore" unicode="_" horiz-adv-x="1024" 
d="M1024 -256h-1024v102h1024v-102z" />
    <glyph glyph-name="grave" unicode="`" horiz-adv-x="303" 
d="M98 1647l191 -351h-111l-282 351h202z" />
    <glyph glyph-name="a" unicode="a" horiz-adv-x="569" 
d="M332 201v405q-34 -20 -50.5 -32.5t-30 -35t-13.5 -51.5v-294q7 -42 47 -39q47 7 47 47zM528 989v-989h-184q-12 25 -12 80h-4q-32 -53 -63.5 -73.5t-90.5 -20.5q-65 0 -99 34.5t-34 100.5v393q0 48 15.5 81.5t41 52.5t56 33.5t60.5 32t55.5 41.5t41 67t15.5 104
q0 4 0.5 17.5t0 21.5t-1 21t-3.5 21.5t-7 17.5t-11 13t-17 4q-12 0 -20.5 -5t-13.5 -15t-8.5 -20t-4 -25t-1 -24.5t0 -25.5t0.5 -20v-153h-199v235q0 91 66 144t178 53t177.5 -53t65.5 -144z" />
    <glyph glyph-name="b" unicode="b" horiz-adv-x="569" 
d="M332 225v721q0 42 -12.5 57t-34.5 15t-34.5 -15t-12.5 -57v-721q0 -42 12.5 -56.5t34.5 -14.5t34.5 14.5t12.5 56.5zM41 0v1458h197v-360h4q57 88 141 88q62 0 103.5 -34.5t41.5 -102.5v-926q0 -68 -41.5 -102.5t-103.5 -34.5q-80 0 -141 84h-4v-70h-197z" />
    <glyph glyph-name="c" unicode="c" horiz-adv-x="569" 
d="M41 182v807q0 91 66 144t178 53t177.5 -53t65.5 -144v-235h-196v217q0 42 -12.5 56.5t-34.5 14.5t-34.5 -14.5t-12.5 -56.5v-785q0 -37 11 -47t36 -10t36 10t11 47v275h196v-279q0 -91 -65 -143.5t-178 -52.5t-178.5 52.5t-65.5 143.5z" />
    <glyph glyph-name="d" unicode="d" horiz-adv-x="569" 
d="M238 946v-721q0 -42 12.5 -56.5t34.5 -14.5t34.5 14.5t12.5 56.5v721q0 42 -12.5 57t-34.5 15t-34.5 -15t-12.5 -57zM528 1458v-1458h-196v70h-4q-61 -84 -142 -84q-62 0 -103.5 34.5t-41.5 102.5v926q0 68 41.5 102.5t103.5 34.5q85 0 142 -88h4v360h196z" />
    <glyph glyph-name="e" unicode="e" horiz-adv-x="569" 
d="M332 461h196v-279q0 -91 -65 -143.5t-178 -52.5t-178.5 52.5t-65.5 143.5v807q0 91 66 144t178 53t177.5 -53t65.5 -144v-430h-290v-373q0 -37 11 -47t36 -10t36 10t11 47v275zM332 696v289q0 37 -11 47t-36 10t-36 -10t-11 -47v-289h94z" />
    <glyph glyph-name="f" unicode="f" horiz-adv-x="342" 
d="M72 0v1016h-62v155h62v148q0 66 31.5 102.5t115.5 36.5h111v-155h-27q-35 -2 -35 -60v-72h62v-155h-62v-1016h-196z" />
    <glyph glyph-name="g" unicode="g" horiz-adv-x="569" 
d="M238 946v-573q0 -42 12.5 -57t34.5 -15t34.5 15t12.5 57v573q0 42 -12.5 57t-34.5 15t-34.5 -15t-12.5 -57zM528 1171v-1237q0 -91 -65 -143.5t-178 -52.5t-178.5 52.5t-65.5 143.5v146h192v-127q0 -72 48 -72q22 0 34.5 15t12.5 57v260h-4q-44 -80 -136 -80
q-71 0 -109 41.5t-38 114.5v741q0 73 38 114.5t109 41.5t144 -84v69h196z" />
    <glyph glyph-name="h" unicode="h" horiz-adv-x="569" 
d="M238 1458v-354h4q21 40 57.5 61t77.5 21q32 0 56 -6t40 -14t26.5 -25t16 -30.5t8.5 -40.5t3.5 -44t0.5 -51v-975h-196v946q0 16 -1 26t-5 22t-13 18t-24 6q-33 0 -42 -19.5t-9 -52.5v-946h-197v1458h197z" />
    <glyph glyph-name="i" unicode="i" horiz-adv-x="303" 
d="M250 0h-197v1171h197v-1171zM250 1458v-209h-197v209h197z" />
    <glyph glyph-name="j" unicode="j" horiz-adv-x="303" 
d="M-35 -262v156q50 0 69 17t19 64v1196h197v-1189q1 -44 -1 -75.5t-11.5 -65.5t-27.5 -55t-51 -34.5t-79 -13.5h-115zM250 1458v-209h-197v209h197z" />
    <glyph glyph-name="k" unicode="k" horiz-adv-x="569" 
d="M242 0h-197v1458h197v-825h8l106 538h197l-113 -528l119 -643h-201l-108 616h-8v-616z" />
    <glyph glyph-name="l" unicode="l" horiz-adv-x="303" 
d="M250 0h-197v1458h197v-1458z" />
    <glyph glyph-name="m" unicode="m" horiz-adv-x="872" 
d="M248 1171v-77h4q54 92 137 92q51 0 81.5 -19t57.5 -65q23 46 55 65t87 19q32 0 56 -6t40 -14t26.5 -25t16 -30.5t8.5 -40.5t3.5 -44t0.5 -51v-975h-196v946q0 21 -2 34t-13 25.5t-32 12.5q-15 0 -24 -6t-13 -18t-5 -22t-1 -26v-946h-197v946q0 21 -2 34t-13 25.5
t-32 12.5q-15 0 -24 -6t-13 -18t-5 -22t-1 -26v-946h-197v1171h197z" />
    <glyph glyph-name="n" unicode="n" horiz-adv-x="569" 
d="M41 0v1171h197v-67h4q21 40 57.5 61t77.5 21q32 0 56 -6t40 -14t26.5 -25t16 -30.5t8.5 -40.5t3.5 -44t0.5 -51v-975h-196v946q0 16 -1 26t-5 22t-13 18t-24 6q-33 0 -42 -19.5t-9 -52.5v-946h-197z" />
    <glyph glyph-name="o" unicode="o" horiz-adv-x="569" 
d="M528 989v-807q0 -91 -65 -143.5t-178 -52.5t-178.5 52.5t-65.5 143.5v807q0 91 66 144t178 53t177.5 -53t65.5 -144zM332 186v799q0 37 -11 47t-36 10t-36 -10t-11 -47v-799q0 -37 11 -47t36 -10t36 10t11 47z" />
    <glyph glyph-name="p" unicode="p" horiz-adv-x="569" 
d="M332 225v721q0 42 -12.5 57t-34.5 15t-34.5 -15t-12.5 -57v-721q0 -42 12.5 -56.5t34.5 -14.5t34.5 14.5t12.5 56.5zM41 -262v1433h197v-69h4q61 84 155 84q131 0 131 -178v-844q0 -178 -145 -178q-84 0 -141 88h-4v-336h-197z" />
    <glyph glyph-name="q" unicode="q" horiz-adv-x="569" 
d="M238 946v-721q0 -42 12.5 -56.5t34.5 -14.5t34.5 14.5t12.5 56.5v721q0 42 -12.5 57t-34.5 15t-34.5 -15t-12.5 -57zM528 1171v-1433h-196v336h-4q-57 -88 -142 -88q-62 0 -103.5 34.5t-41.5 102.5v926q0 68 41.5 102.5t103.5 34.5q81 0 142 -84h4v69h196z" />
    <glyph glyph-name="r" unicode="r" horiz-adv-x="569" 
d="M41 0v1171h197v-67h4q21 40 57.5 61t77.5 21q32 0 56 -6t40 -14.5t27 -26.5t16.5 -31.5t8 -40.5t3 -43t0.5 -50v-11v-404h-196v387q0 16 -1 26t-5 22t-13 18t-24 6q-33 0 -42 -19.5t-9 -52.5v-946h-197z" />
    <glyph glyph-name="s" unicode="s" horiz-adv-x="569" 
d="M41 457h197v-256q0 -42 12.5 -57t34.5 -15t34.5 15t12.5 57v121q0 52 -30 106.5t-72.5 101.5t-85.5 94.5t-73 101.5t-30 105v158q0 91 66 144t178 53t177.5 -53t65.5 -144v-241h-196v223q0 42 -12.5 56.5t-34.5 14.5t-34.5 -14.5t-12.5 -56.5v-97q0 -32 30 -75t72.5 -87
t85 -90.5t72.5 -100t30 -101.5v-238q0 -91 -65 -143.5t-178 -52.5t-178.5 52.5t-65.5 143.5v275z" />
    <glyph glyph-name="t" unicode="t" horiz-adv-x="342" 
d="M266 1382v-211h64v-155h-64v-766q0 -41 7 -63t15 -26.5t21 -4.5h21v-156h-113q-34 0 -61.5 12t-43 29.5t-25.5 40t-13.5 40.5t-3.5 34v860h-58v155h58v211h196z" />
    <glyph glyph-name="u" unicode="u" horiz-adv-x="569" 
d="M527 1171v-1171h-196v68h-4q-21 -40 -57.5 -61t-77.5 -21q-28 0 -50 4t-38 13.5t-27 18.5t-18 27t-11 30.5t-5.5 37.5t-2 39t-0.5 44v9v962h197v-946q0 -21 2 -34t12 -25t29 -12q33 0 42 19t9 52v946h196z" />
    <glyph glyph-name="v" unicode="v" horiz-adv-x="569" 
d="M156 0l-152 1171h197l47 -407q7 -55 11.5 -109t7 -115.5t3.5 -98.5t2 -111.5t2 -102.5h9q3 45 9 188t15 220l62 536h194l-162 -1171h-245z" />
    <glyph glyph-name="w" unicode="w" horiz-adv-x="909" 
d="M348 1171h219l33 -475q3 -70 14 -227.5t13 -241.5h6q3 41 10 194t16 236l39 514h203l-145 -1171h-215l-47 391q-37 378 -37 557h-4q-11 -278 -27 -448l-53 -500h-232l-135 1171h203l43 -550q18 -263 22 -394h9q7 256 18 400z" />
    <glyph glyph-name="x" unicode="x" horiz-adv-x="530" 
d="M18 1171h197q3 -22 27 -172t28 -229h4q5 70 21 203t22 198h189l-98 -553l114 -618h-196q-22 110 -41.5 278t-24.5 201h-4q-4 -72 -14 -151.5t-24.5 -177.5t-20.5 -150h-189l119 614z" />
    <glyph glyph-name="y" unicode="y" horiz-adv-x="569" 
d="M143 203l-135 968h195l43 -389q20 -183 33 -524h8q2 24 10 209t20 274l48 430h194l-174 -1241q-7 -46 -13 -75t-17.5 -52t-24.5 -34.5t-38 -19t-52 -9.5t-72 -2q-24 0 -64 1t-57 1v154h59q41 0 55.5 18t14.5 51t-15.5 123t-17.5 117z" />
    <glyph glyph-name="z" unicode="z" horiz-adv-x="454" 
d="M8 162l223 854h-223v155h420v-155l-225 -860h241v-156h-436v162z" />
    <glyph glyph-name="braceleft" unicode="{" 
d="M76 569v127q67 0 121.5 52t54.5 135v342q0 72 38 127.5t89.5 80.5t103.5 25h160v-143h-108q-56 0 -79.5 -37.5t-23.5 -83.5v-336q0 -47 -14.5 -85.5t-36 -62t-48.5 -40.5t-48 -24.5t-39 -10.5v-4q19 -3 39.5 -9.5t48 -24t48 -41.5t35.5 -65t15 -92v-333q0 -57 22.5 -89
t80.5 -32h108v-144h-160q-52 0 -103.5 25.5t-89.5 81t-38 127.5v340q0 89 -54 141.5t-122 52.5z" />
    <glyph glyph-name="bar" unicode="|" horiz-adv-x="454" 
d="M137 -512v2048h180v-2048h-180z" />
    <glyph glyph-name="braceright" unicode="}" 
d="M39 -199v144h108q56 0 79.5 37.5t23.5 83.5v335q0 57 21 102t53.5 69t60 36.5t51.5 16.5v4q-25 4 -51.5 15t-59.5 35t-54 71t-21 110v334q0 57 -22.5 89t-80.5 32h-108v143h160q52 0 103.5 -25t89.5 -80.5t38 -127.5v-340q0 -89 54 -142t122 -53v-127q-67 0 -121.5 -51.5
t-54.5 -134.5v-342q0 -72 -38 -127.5t-89.5 -81t-103.5 -25.5h-160z" />
    <glyph glyph-name="asciitilde" unicode="~" horiz-adv-x="1024" 
d="M911 748l74 -144q-23 -32 -38.5 -52t-41 -46.5t-49.5 -41t-57 -25.5t-70 -11q-38 0 -80.5 12t-68 23t-72.5 35q-46 23 -72.5 34.5t-69 23t-81.5 11.5q-105 0 -172 -147l-74 143q92 176 256 176q85 0 235 -69q7 -3 25.5 -11.5t26 -12t23.5 -10.5t24.5 -10t22 -8t22.5 -7.5
t20 -5.5t20 -4t17 -1q29 0 55 11.5t49.5 36.5t38 45t37.5 55z" />
    <glyph glyph-name="uni00A0" unicode="&#xa0;" horiz-adv-x="339" 
 />
    <glyph glyph-name="exclamdown" unicode="&#xa1;" horiz-adv-x="417" 
d="M106 911h205v-1140h-205v1140zM106 1225h205v-228h-205v228z" />
    <glyph glyph-name="cent" unicode="&#xa2;" 
d="M117 -170l47 215q-60 51 -60 137v807q0 91 66 144t178 53q35 0 49 -4l41 145h111l-47 -178q90 -55 90 -160v-235h-197v217q0 42 -12.5 56.5t-34.5 14.5t-34.5 -14.5t-12.5 -56.5v-785q0 -37 11 -47t36 -10t36 10t11 47v275h197v-279q0 -91 -65.5 -143.5t-178.5 -52.5
q-41 0 -86 10l-37 -166h-108z" />
    <glyph glyph-name="sterling" unicode="&#xa3;" 
d="M416 1081v140q0 35 -19.5 57t-52.5 22q-42 0 -58 -39t-16 -110q0 -61 37 -223q7 -30 15.5 -62.5t13.5 -52t6 -25.5h156v-116h-142q6 -64 6 -119q0 -126 -28 -215.5t-107 -157.5l4 -4q30 8 95.5 11.5t134.5 -5.5q48 -10 95.5 -9t94.5 24l8 -191q-45 -11 -87 -14t-68 -1
t-75.5 8.5t-80.5 8.5q-126 3 -141 2.5t-42.5 -5.5t-86.5 -7l-39 154q60 66 83 138.5t23 160.5q0 65 -8 221h-94v116h68q-58 199 -58 390q0 149 71 223t230 74q157 0 218 -61t61 -200v-133h-217z" />
    <glyph glyph-name="currency" unicode="&#xa4;" 
d="M51 578l66 63q-58 67 -58 166q0 108 58 166l-66 65l58 60l65 -64q66 56 170 56q101 0 160 -56l69 64l60 -60l-64 -63q54 -63 54 -166q0 -102 -54 -168l64 -63l-60 -60l-63 66q-64 -58 -166 -58q-108 0 -172 58l-63 -66zM344 621q76 0 127 55t51 133q0 75 -52 130.5
t-126 55.5q-78 0 -131 -55t-53 -133t53.5 -132t130.5 -54z" />
    <glyph glyph-name="yen" unicode="&#xa5;" 
d="M641 702h-147l-25 -102h117v-117h-140v-483h-217v483h-139v117h117l-25 102h-147v117h123l-150 639h225l70 -317q18 -79 24.5 -135t14.5 -181h16q3 168 33 305l78 328h203l-154 -637h123v-119z" />
    <glyph glyph-name="brokenbar" unicode="&#xa6;" horiz-adv-x="454" 
d="M137 -358v716h180v-716h-180zM137 666v716h180v-716h-180z" />
    <glyph glyph-name="section" unicode="&#xa7;" 
d="M598 1159h-180v90q0 45 -14 69.5t-56 24.5q-14 0 -25 -2t-18.5 -7.5t-13 -10.5t-9 -15t-5.5 -16.5t-2.5 -19.5t-0.5 -20v-22.5v-21.5q0 -59 20 -109.5t51.5 -88t70 -73.5t77.5 -73.5t70.5 -79t51.5 -99.5t20 -126q0 -79 -37 -149t-102 -111q56 -55 77 -119t21 -153
q0 -153 -62.5 -221t-209.5 -68q-137 0 -192.5 63t-55.5 179v126h180v-129q0 -49 16 -72.5t60 -23.5q24 0 41 7.5t25.5 17.5t12.5 30t4.5 33t0.5 40v9q0 60 -20 110.5t-52.5 88t-71.5 73.5t-78.5 74.5t-72 81.5t-52.5 104t-20 134q0 78 37 142t104 104q-96 104 -96 270
q0 51 6.5 91.5t23.5 78t45.5 62.5t74 40t106.5 15q133 0 191.5 -58t58.5 -180v-90zM281 823q-24 -23 -39 -59t-15 -70q0 -43 15 -83t44.5 -75.5t56.5 -60.5t67 -57q45 68 45 139q0 36 -20 76t-40 64.5t-61.5 68.5t-52.5 57z" />
    <glyph glyph-name="dieresis" unicode="&#xa8;" horiz-adv-x="303" 
d="M100 1364h-184v199h184v-199zM387 1364h-184v199h184v-199z" />
    <glyph glyph-name="copyright" unicode="&#xa9;" horiz-adv-x="1638" 
d="M819 -29q-154 0 -294.5 55.5t-247 153t-169.5 240.5t-63 309t63 309t169.5 240.5t247 153t294.5 55.5t294.5 -55.5t247 -153t169.5 -240.5t63 -309t-63 -309t-169.5 -240.5t-247 -153t-294.5 -55.5zM229 729q0 -174 78.5 -314t213 -218t298.5 -78q162 0 296.5 78
t214 218.5t79.5 313.5t-79.5 313.5t-214 218.5t-296.5 78q-164 0 -298.5 -78t-213 -218t-78.5 -314zM1063 600h156q-26 -151 -128.5 -237.5t-242.5 -86.5q-195 0 -315.5 130t-120.5 327q0 201 116 329t314 128q145 0 247 -82.5t123 -230.5h-149q-17 76 -76 120.5t-143 44.5
q-122 0 -189 -85t-67 -220q0 -132 71.5 -222.5t188.5 -90.5q87 0 145 48t70 128z" />
    <glyph glyph-name="ordfeminine" unicode="&#xaa;" horiz-adv-x="342" 
d="M133 1069v-178q1 -10 13 -17.5t26 -5.5q18 2 35 29v244q-33 -13 -49 -29q-2 -2 -6.5 -7t-7 -8t-5.5 -8t-4.5 -10t-1.5 -10zM328 1380v-604h-117q-8 14 -8 47h-2q-21 -31 -42 -43t-59 -12q-41 0 -64.5 21t-23.5 59v237q0 39 20.5 67t50 44.5t58.5 33t48.5 41.5t17.5 60
q0 64 -33 64q-10 0 -17 -4t-11 -9t-6.5 -15t-3 -15.5t-1 -16.5t-0.5 -14v-72h-123v131q0 57 45 82t105 25q67 0 116.5 -25t49.5 -82z" />
    <glyph glyph-name="guillemotleft" unicode="&#xab;" 
d="M647 1026v-250l-178 -190l178 -187v-260l-280 314v266zM313 1026v-250l-178 -190l178 -187v-260l-280 314v266z" />
    <glyph glyph-name="logicalnot" unicode="&#xac;" horiz-adv-x="1024" 
d="M834 315v390h-824v180h1004v-570h-180z" />
    <glyph glyph-name="uni00AD" unicode="&#xad;" horiz-adv-x="339" 
d="M41 541v147h260v-147h-260z" />
    <glyph glyph-name="registered" unicode="&#xae;" horiz-adv-x="1638" 
d="M819 -29q-154 0 -294.5 55.5t-247 153t-169.5 240.5t-63 309t63 309t169.5 240.5t247 153t294.5 55.5t294.5 -55.5t247 -153t169.5 -240.5t63 -309t-63 -309t-169.5 -240.5t-247 -153t-294.5 -55.5zM229 729q0 -174 78.5 -314t213 -218t298.5 -78q162 0 296.5 78
t214 218.5t79.5 313.5t-79.5 313.5t-214 218.5t-296.5 78q-164 0 -298.5 -78t-213 -218t-78.5 -314zM672 682v-369h-150v858h324q161 0 242 -59.5t81 -191.5q0 -208 -229 -232l236 -375h-164l-215 369h-125zM672 805h157q34 0 58 2t49.5 9.5t40.5 21t25 37.5t10 57
q0 117 -181 117h-159v-244z" />
    <glyph glyph-name="macron" unicode="&#xaf;" horiz-adv-x="303" 
d="M-82 1518h469v-132h-469v132z" />
    <glyph glyph-name="degree" unicode="&#xb0;" horiz-adv-x="819" 
d="M410 961q82 0 136 57t54 141t-54 141.5t-136 57.5t-136.5 -57.5t-54.5 -141.5t54 -141t137 -57zM410 860q-123 0 -211 88t-88 211t88 211t211 88t211 -88t88 -211t-88 -211t-211 -88z" />
    <glyph glyph-name="plusminus" unicode="&#xb1;" horiz-adv-x="1024" 
d="M422 797v290h180v-290h412v-181h-412v-292h-180v292h-412v181h412zM10 84v180h1004v-180h-1004z" />
    <glyph glyph-name="twosuperior" unicode="&#xb2;" horiz-adv-x="407" 
d="M178 694h209v-104h-364v55q0 71 23.5 143t56.5 129.5t66.5 110.5t57 104.5t23.5 92.5v80q0 35 -8.5 50t-28.5 15q-49 0 -49 -65v-154h-141v137q0 100 48.5 143.5t155.5 43.5q49 0 83 -16.5t51 -46.5t23.5 -63t6.5 -75q0 -67 -21.5 -134t-52 -121.5t-61.5 -106
t-53.5 -108.5t-24.5 -110z" />
    <glyph glyph-name="threesuperior" unicode="&#xb3;" horiz-adv-x="407" 
d="M23 911h141v-133q0 -94 39 -94q24 0 35.5 13t11.5 55v159q0 70 -64 70h-22v104q51 -4 68.5 18t17.5 68v78q-1 19 -0.5 36.5t-0.5 33t-4 27t-11 18t-21 6.5t-22.5 -4t-14.5 -9.5t-7.5 -16t-3 -16.5t-1 -20t-0.5 -18v-133h-141v143q0 97 47 138t143 41q178 0 178 -170v-142
q0 -49 -23 -82t-87 -47v-4q50 -16 75 -36t30 -38t5 -51v-147q0 -100 -46.5 -139t-135.5 -39q-108 0 -147 51.5t-39 156.5v123z" />
    <glyph glyph-name="acute" unicode="&#xb4;" horiz-adv-x="303" 
d="M14 1296l191 351h203l-283 -351h-111z" />
    <glyph glyph-name="mu" unicode="&#xb5;" horiz-adv-x="569" 
d="M528 1171v-1171h-196v68h-4q-31 -61 -90 -74v-256h-197v1433h197v-946q0 -21 2 -34t12 -25t29 -12q33 0 42 19t9 52v946h196z" />
    <glyph glyph-name="paragraph" unicode="&#xb6;" horiz-adv-x="1228" 
d="M498 -367v1078q-202 0 -322.5 101.5t-120.5 264.5q0 381 484 381h440h180v-143h-180v-1682h-180v1682h-121v-1682h-180z" />
    <glyph glyph-name="periodcentered" unicode="&#xb7;" horiz-adv-x="339" 
d="M61 586q0 44 31.5 76t77.5 32q45 0 78 -32t33 -76q0 -45 -33 -78t-78 -33q-46 0 -77.5 32.5t-31.5 78.5z" />
    <glyph glyph-name="cedilla" unicode="&#xb8;" horiz-adv-x="303" 
d="M55 -176l60 164h61l-31 -97q35 5 50 5q70 0 117.5 -37.5t47.5 -108.5q0 -48 -24 -83.5t-63.5 -54.5t-81.5 -27.5t-87 -8.5q-62 0 -135 18q-18 5 -26.5 8.5t-11.5 6.5t0 8.5t7 11.5t10.5 18t10.5 25q63 -26 123 -26q46 0 84.5 21t44.5 63q6 52 -23.5 76t-78.5 24
q-39 0 -54 -6z" />
    <glyph glyph-name="onesuperior" unicode="&#xb9;" horiz-adv-x="407" 
d="M39 1260v90q66 10 98 34t31 80h117v-874h-142v670h-104z" />
    <glyph glyph-name="ordmasculine" unicode="&#xba;" horiz-adv-x="342" 
d="M133 1352v-451q0 -41 35 -41q39 0 39 45v303q0 136 -5 158q-8 28 -30 29q-20 0 -29.5 -13t-9.5 -30zM12 903v455q-2 58 39 93.5t113 35.5q164 0 164 -115v-446q0 -80 -37 -119t-127 -39q-79 0 -116.5 33t-35.5 102z" />
    <glyph glyph-name="guillemotright" unicode="&#xbb;" 
d="M33 776v250l280 -307v-266l-280 -314v260l178 187zM367 776v250l280 -307v-266l-280 -314v260l178 187z" />
    <glyph glyph-name="onequarter" unicode="&#xbc;" horiz-adv-x="1021" 
d="M717 874h198v-546h58v-105h-58v-223h-133v223h-237v90zM662 328h120v442h-4q-48 -253 -116 -442zM670 1475h98l-477 -1491h-98zM49 1260v90q66 10 98 34t31 80h117v-874h-141v670h-105z" />
    <glyph glyph-name="onehalf" unicode="&#xbd;" horiz-adv-x="1021" 
d="M657 1475h99l-477 -1491h-99zM37 1260v90q66 10 98 34t31 80h117v-874h-142v670h-104zM772 104h209v-104h-365v55q0 71 23.5 143t57 129.5t67 110.5t57 104.5t23.5 92.5v80q0 35 -8.5 50t-28.5 15q-49 0 -49 -65v-154h-142v137q0 100 49 143.5t156 43.5q49 0 83 -16.5
t51 -46.5t23.5 -63t6.5 -75q0 -67 -21.5 -134t-52 -121.5t-61.5 -106t-53.5 -108.5t-24.5 -110z" />
    <glyph glyph-name="threequarters" unicode="&#xbe;" horiz-adv-x="1021" 
d="M737 874h199v-546h57v-105h-57v-223h-133v223h-238v90zM682 328h121v442h-4q-47 -247 -117 -442zM727 1475h98l-477 -1491h-98zM33 911h141v-133q0 -94 39 -94q24 0 35.5 13t11.5 55v159q0 70 -63 70h-23v104q51 -4 68.5 18t17.5 68v78q-1 19 -0.5 36.5t-0.5 33t-4 27
t-11 18t-21 6.5t-22.5 -4t-14.5 -9.5t-7.5 -16t-3 -16.5t-1 -20t-0.5 -18v-133h-141v143q0 97 47 138t143 41q178 0 178 -170v-142q0 -49 -23 -82t-87 -47v-4q50 -16 75 -36t30 -38t5 -51v-147q0 -100 -46.5 -139t-135.5 -39q-108 0 -147 51.5t-39 156.5v123z" />
    <glyph glyph-name="questiondown" unicode="&#xbf;" 
d="M395 283h197v-324q0 -221 -244 -221q-128 0 -193 55.5t-65 200.5v164q0 114 23 159l100 197q23 45 23 170v227h204v-311q0 -79 -22 -127l-96 -194q-35 -75 -35 -121v-203q0 -44 9.5 -59t45.5 -15q30 0 41.5 17.5t11.5 62.5v322zM236 1225h204v-228h-204v228z" />
    <glyph glyph-name="Agrave" unicode="&#xc0;" 
d="M276 586h113l-45 606h-14zM12 0l166 1458h326l166 -1458h-219l-41 395h-154l-47 -395h-197zM289 1894l190 -350h-110l-283 350h203z" />
    <glyph glyph-name="Aacute" unicode="&#xc1;" 
d="M276 586h113l-45 606h-14zM12 0l166 1458h326l166 -1458h-219l-41 395h-154l-47 -395h-197zM205 1544l190 350h203l-283 -350h-110z" />
    <glyph glyph-name="Acircumflex" unicode="&#xc2;" 
d="M276 586h113l-45 606h-14zM12 0l166 1458h326l166 -1458h-219l-41 395h-154l-47 -395h-197zM190 1544h-108l180 350h164l176 -350h-108l-148 228z" />
    <glyph glyph-name="Atilde" unicode="&#xc3;" 
d="M276 586h113l-45 606h-14zM12 0l166 1458h326l166 -1458h-219l-41 395h-154l-47 -395h-197zM150 1591h-72q30 209 186 209q30 0 94 -22q85 -23 99 -23q41 0 61 18.5t29 59.5q7 -1 24 0t34.5 1t17.5 -3q-8 -80 -62.5 -138.5t-130.5 -58.5q-32 0 -106 21q-70 20 -91 20
q-33 0 -54.5 -25t-28.5 -59z" />
    <glyph glyph-name="Adieresis" unicode="&#xc4;" 
d="M276 586h113l-45 606h-14zM12 0l166 1458h326l166 -1458h-219l-41 395h-154l-47 -395h-197zM291 1612h-185v198h185v-198zM578 1612h-185v198h185v-198z" />
    <glyph glyph-name="Aring" unicode="&#xc5;" 
d="M276 586h113l-45 606h-14zM12 0l166 1458h326l166 -1458h-219l-41 395h-154l-47 -395h-197zM264 1704q0 -31 24.5 -55.5t53.5 -24.5t53.5 24.5t24.5 55.5t-24.5 55.5t-53.5 24.5t-53.5 -24.5t-24.5 -55.5zM172 1704q0 72 50 123t120 51t120 -51t50 -123t-50 -123
t-120 -51t-120 51t-50 123z" />
    <glyph glyph-name="AE" unicode="&#xc6;" horiz-adv-x="985" 
d="M334 586h131v682h-19zM211 0h-211l303 1458h664v-190h-285v-375h270v-191h-270v-512h281v-190h-498v395h-172z" />
    <glyph glyph-name="Ccedilla" unicode="&#xc7;" 
d="M408 551h217v-334q0 -65 -22.5 -113t-62 -75.5t-84 -40.5t-96.5 -15l-24 -82q35 5 49 5q70 0 118 -37.5t48 -108.5q0 -48 -24 -83.5t-63.5 -54.5t-81.5 -27.5t-87 -8.5q-61 0 -135 18q-18 5 -26.5 8.5t-11.5 6.5t0 8.5t7 11.5t10.5 18t10.5 25q63 -26 122 -26
q46 0 84.5 21t44.5 63q6 52 -23.5 76t-78.5 24q-38 0 -53 -6l53 149q-103 9 -172.5 67.5t-69.5 176.5v1024q0 68 25 118t67.5 76.5t89.5 39t101 12.5t102 -12t90.5 -39t67.5 -77t25 -118v-315h-217v297q0 53 -15.5 71.5t-50.5 18.5q-36 0 -52 -18.5t-16 -71.5v-987
q0 -53 16 -72t52 -19q34 0 50 19t16 72v315z" />
    <glyph glyph-name="Egrave" unicode="&#xc8;" horiz-adv-x="569" 
d="M551 0h-488v1458h484v-190h-266v-375h256v-191h-256v-512h270v-190zM231 1894l191 -350h-111l-282 350h202z" />
    <glyph glyph-name="Eacute" unicode="&#xc9;" horiz-adv-x="569" 
d="M551 0h-488v1458h484v-190h-266v-375h256v-191h-256v-512h270v-190zM147 1544l191 350h203l-283 -350h-111z" />
    <glyph glyph-name="Ecircumflex" unicode="&#xca;" horiz-adv-x="569" 
d="M551 0h-488v1458h484v-190h-266v-375h256v-191h-256v-512h270v-190zM133 1544h-108l180 350h164l176 -350h-109l-147 228z" />
    <glyph glyph-name="Edieresis" unicode="&#xcb;" horiz-adv-x="569" 
d="M551 0h-488v1458h484v-190h-266v-375h256v-191h-256v-512h270v-190zM233 1612h-184v198h184v-198zM520 1612h-184v198h184v-198z" />
    <glyph glyph-name="Igrave" unicode="&#xcc;" horiz-adv-x="342" 
d="M279 0h-218v1458h218v-1458zM119 1894l190 -350h-110l-283 350h203z" />
    <glyph glyph-name="Iacute" unicode="&#xcd;" horiz-adv-x="342" 
d="M279 0h-218v1458h218v-1458zM35 1544l190 350h203l-283 -350h-110z" />
    <glyph glyph-name="Icircumflex" unicode="&#xce;" horiz-adv-x="342" 
d="M279 0h-218v1458h218v-1458zM20 1544h-108l180 350h164l176 -350h-108l-148 228z" />
    <glyph glyph-name="Idieresis" unicode="&#xcf;" horiz-adv-x="342" 
d="M279 0h-218v1458h218v-1458zM121 1612h-184v198h184v-198zM408 1612h-185v198h185v-198z" />
    <glyph glyph-name="Eth" unicode="&#xd0;" 
d="M57 725h-69v174h69v559h262q166 0 236 -71.5t70 -258.5v-864q0 -110 -68.5 -187t-189.5 -77h-310v725zM274 899h70v-174h-70v-551h52q45 0 63.5 21t18.5 88v893q0 66 -18.5 87t-63.5 21h-52v-385z" />
    <glyph glyph-name="Ntilde" unicode="&#xd1;" horiz-adv-x="796" 
d="M63 1458h326l62 -420q75 -413 102 -825h8v78q1 77 -2.5 221.5t-3.5 204.5v741h178v-1458h-321l-103 729q-12 63 -23 138t-15.5 117.5t-14 138.5t-12.5 122h-8q0 -5 6 -188v-1057h-179v1458zM207 1591h-72q30 209 187 209q30 0 94 -22q85 -23 98 -23q41 0 61 18.5t29 59.5
q7 -1 24 0t34.5 1t17.5 -3q-8 -80 -62.5 -138.5t-130.5 -58.5q-33 0 -106 21q-70 20 -90 20q-33 0 -55 -25t-29 -59z" />
    <glyph glyph-name="Ograve" unicode="&#xd2;" 
d="M274 1223v-987q0 -53 16 -72t52 -19q34 0 50 19t16 72v987q0 53 -15.5 71.5t-50.5 18.5q-36 0 -52 -18.5t-16 -71.5zM57 217v1024q0 68 25 118t67.5 76.5t89.5 39t101 12.5t102 -12t90.5 -39t67.5 -77t25 -118v-1024q0 -68 -25 -118t-67.5 -77t-90.5 -39t-102 -12
t-101 12.5t-89.5 39t-67.5 76.5t-25 118zM289 1894l190 -350h-110l-283 350h203z" />
    <glyph glyph-name="Oacute" unicode="&#xd3;" 
d="M274 1223v-987q0 -53 16 -72t52 -19q34 0 50 19t16 72v987q0 53 -15.5 71.5t-50.5 18.5q-36 0 -52 -18.5t-16 -71.5zM57 217v1024q0 68 25 118t67.5 76.5t89.5 39t101 12.5t102 -12t90.5 -39t67.5 -77t25 -118v-1024q0 -68 -25 -118t-67.5 -77t-90.5 -39t-102 -12
t-101 12.5t-89.5 39t-67.5 76.5t-25 118zM205 1544l190 350h203l-283 -350h-110z" />
    <glyph glyph-name="Ocircumflex" unicode="&#xd4;" 
d="M274 1223v-987q0 -53 16 -72t52 -19q34 0 50 19t16 72v987q0 53 -15.5 71.5t-50.5 18.5q-36 0 -52 -18.5t-16 -71.5zM57 217v1024q0 68 25 118t67.5 76.5t89.5 39t101 12.5t102 -12t90.5 -39t67.5 -77t25 -118v-1024q0 -68 -25 -118t-67.5 -77t-90.5 -39t-102 -12
t-101 12.5t-89.5 39t-67.5 76.5t-25 118zM190 1544h-108l180 350h164l176 -350h-108l-148 228z" />
    <glyph glyph-name="Otilde" unicode="&#xd5;" 
d="M274 1223v-987q0 -53 16 -72t52 -19q34 0 50 19t16 72v987q0 53 -15.5 71.5t-50.5 18.5q-36 0 -52 -18.5t-16 -71.5zM57 217v1024q0 68 25 118t67.5 76.5t89.5 39t101 12.5t102 -12t90.5 -39t67.5 -77t25 -118v-1024q0 -68 -25 -118t-67.5 -77t-90.5 -39t-102 -12
t-101 12.5t-89.5 39t-67.5 76.5t-25 118zM150 1591h-72q30 209 186 209q30 0 94 -22q85 -23 99 -23q41 0 61 18.5t29 59.5q7 -1 24 0t34.5 1t17.5 -3q-8 -80 -62.5 -138.5t-130.5 -58.5q-32 0 -106 21q-70 20 -91 20q-33 0 -54.5 -25t-28.5 -59z" />
    <glyph glyph-name="Odieresis" unicode="&#xd6;" 
d="M274 1223v-987q0 -53 16 -72t52 -19q34 0 50 19t16 72v987q0 53 -15.5 71.5t-50.5 18.5q-36 0 -52 -18.5t-16 -71.5zM57 217v1024q0 68 25 118t67.5 76.5t89.5 39t101 12.5t102 -12t90.5 -39t67.5 -77t25 -118v-1024q0 -68 -25 -118t-67.5 -77t-90.5 -39t-102 -12
t-101 12.5t-89.5 39t-67.5 76.5t-25 118zM291 1612h-185v198h185v-198zM578 1612h-185v198h185v-198z" />
    <glyph glyph-name="multiply" unicode="&#xd7;" horiz-adv-x="1024" 
d="M387 547l-377 377l125 129l377 -377l377 377l125 -129l-375 -375l375 -377l-125 -129l-377 377l-377 -377l-125 129z" />
    <glyph glyph-name="Oslash" unicode="&#xd8;" 
d="M279 705l129 380v138q0 53 -15.5 71.5t-50.5 18.5q-36 0 -52 -18.5t-16 -71.5v-518h5zM403 731l-129 -383v-112q0 -53 16 -72t52 -19q34 0 50 19t16 72v495h-5zM57 217v1024q0 68 25 118t67.5 76.5t89.5 39t101 12.5q117 0 190 -51l33 96h123l-74 -211q13 -32 13 -80
v-1024q0 -68 -25 -118t-67.5 -77t-90.5 -39t-102 -12q-108 0 -180 45l-39 -108h-125l76 219q-15 37 -15 90z" />
    <glyph glyph-name="Ugrave" unicode="&#xd9;" 
d="M408 1458h217v-1241q0 -68 -25 -118t-67.5 -77t-90.5 -39t-102 -12t-101 12.5t-89.5 39t-67.5 76.5t-25 118v1241h217v-1222q0 -53 16 -72t52 -19q34 0 50 19t16 72v1222zM289 1894l190 -350h-110l-283 350h203z" />
    <glyph glyph-name="Uacute" unicode="&#xda;" 
d="M408 1458h217v-1241q0 -68 -25 -118t-67.5 -77t-90.5 -39t-102 -12t-101 12.5t-89.5 39t-67.5 76.5t-25 118v1241h217v-1222q0 -53 16 -72t52 -19q34 0 50 19t16 72v1222zM205 1544l190 350h203l-283 -350h-110z" />
    <glyph glyph-name="Ucircumflex" unicode="&#xdb;" 
d="M408 1458h217v-1241q0 -68 -25 -118t-67.5 -77t-90.5 -39t-102 -12t-101 12.5t-89.5 39t-67.5 76.5t-25 118v1241h217v-1222q0 -53 16 -72t52 -19q34 0 50 19t16 72v1222zM190 1544h-108l180 350h164l176 -350h-108l-148 228z" />
    <glyph glyph-name="Udieresis" unicode="&#xdc;" 
d="M408 1458h217v-1241q0 -68 -25 -118t-67.5 -77t-90.5 -39t-102 -12t-101 12.5t-89.5 39t-67.5 76.5t-25 118v1241h217v-1222q0 -53 16 -72t52 -19q34 0 50 19t16 72v1222zM291 1612h-185v198h185v-198zM578 1612h-185v198h185v-198z" />
    <glyph glyph-name="Yacute" unicode="&#xdd;" 
d="M8 1458h223l72 -317q9 -42 15 -71t10 -58.5t6.5 -47.5t7 -62t8.5 -77h4q10 195 37 305l78 328h203l-223 -903v-555h-218v545zM205 1544l190 350h203l-283 -350h-110z" />
    <glyph glyph-name="Thorn" unicode="&#xde;" 
d="M57 0v1458h217v-196h11q175 0 257.5 -65t82.5 -220v-315q0 -149 -66.5 -224.5t-193.5 -75.5h-91v-362h-217zM408 602v346q0 77 -20.5 108t-74.5 31h-39v-550q33 0 54 2t41 8.5t29.5 20t9.5 34.5z" />
    <glyph glyph-name="germandbls" unicode="&#xdf;" horiz-adv-x="569" 
d="M285 -14v143q55 0 55 61v533q-8 35 -55 43v143q16 -1 25 10.5t9 30.5v318q0 25 -6.5 36t-29.5 11q-45 0 -45 -64v-1251h-197v1194q0 264 235 264q39 0 71.5 -5t56 -11.5t41.5 -21t30 -26t20 -33t12 -36t6 -42t2.5 -43t0.5 -46.5v-244q-14 -83 -80 -108q-1 -2 1.5 -4
t11 -7.5t16.5 -11.5q22 -14 36 -31.5t21.5 -31.5t10.5 -42t3.5 -43t0.5 -55v-344q0 -65 -5 -108.5t-20 -83t-42.5 -60.5t-73.5 -30.5t-111 -3.5z" />
    <glyph glyph-name="agrave" unicode="&#xe0;" horiz-adv-x="569" 
d="M332 201v405q-34 -20 -50.5 -32.5t-30 -35t-13.5 -51.5v-294q7 -42 47 -39q47 7 47 47zM528 989v-989h-184q-12 25 -12 80h-4q-32 -53 -63.5 -73.5t-90.5 -20.5q-65 0 -99 34.5t-34 100.5v393q0 48 15.5 81.5t41 52.5t56 33.5t60.5 32t55.5 41.5t41 67t15.5 104
q0 4 0.5 17.5t0 21.5t-1 21t-3.5 21.5t-7 17.5t-11 13t-17 4q-12 0 -20.5 -5t-13.5 -15t-8.5 -20t-4 -25t-1 -24.5t0 -25.5t0.5 -20v-153h-199v235q0 91 66 144t178 53t177.5 -53t65.5 -144zM231 1647l191 -351h-111l-282 351h202z" />
    <glyph glyph-name="aacute" unicode="&#xe1;" horiz-adv-x="569" 
d="M332 201v405q-34 -20 -50.5 -32.5t-30 -35t-13.5 -51.5v-294q7 -42 47 -39q47 7 47 47zM528 989v-989h-184q-12 25 -12 80h-4q-32 -53 -63.5 -73.5t-90.5 -20.5q-65 0 -99 34.5t-34 100.5v393q0 48 15.5 81.5t41 52.5t56 33.5t60.5 32t55.5 41.5t41 67t15.5 104
q0 4 0.5 17.5t0 21.5t-1 21t-3.5 21.5t-7 17.5t-11 13t-17 4q-12 0 -20.5 -5t-13.5 -15t-8.5 -20t-4 -25t-1 -24.5t0 -25.5t0.5 -20v-153h-199v235q0 91 66 144t178 53t177.5 -53t65.5 -144zM147 1296l191 351h203l-283 -351h-111z" />
    <glyph glyph-name="acircumflex" unicode="&#xe2;" horiz-adv-x="569" 
d="M332 201v405q-34 -20 -50.5 -32.5t-30 -35t-13.5 -51.5v-294q7 -42 47 -39q47 7 47 47zM528 989v-989h-184q-12 25 -12 80h-4q-32 -53 -63.5 -73.5t-90.5 -20.5q-65 0 -99 34.5t-34 100.5v393q0 48 15.5 81.5t41 52.5t56 33.5t60.5 32t55.5 41.5t41 67t15.5 104
q0 4 0.5 17.5t0 21.5t-1 21t-3.5 21.5t-7 17.5t-11 13t-17 4q-12 0 -20.5 -5t-13.5 -15t-8.5 -20t-4 -25t-1 -24.5t0 -25.5t0.5 -20v-153h-199v235q0 91 66 144t178 53t177.5 -53t65.5 -144zM133 1296h-108l180 351h164l176 -351h-109l-147 228z" />
    <glyph glyph-name="atilde" unicode="&#xe3;" horiz-adv-x="569" 
d="M332 201v405q-34 -20 -50.5 -32.5t-30 -35t-13.5 -51.5v-294q7 -42 47 -39q47 7 47 47zM528 989v-989h-184q-12 25 -12 80h-4q-32 -53 -63.5 -73.5t-90.5 -20.5q-65 0 -99 34.5t-34 100.5v393q0 48 15.5 81.5t41 52.5t56 33.5t60.5 32t55.5 41.5t41 67t15.5 104
q0 4 0.5 17.5t0 21.5t-1 21t-3.5 21.5t-7 17.5t-11 13t-17 4q-12 0 -20.5 -5t-13.5 -15t-8.5 -20t-4 -25t-1 -24.5t0 -25.5t0.5 -20v-153h-199v235q0 91 66 144t178 53t177.5 -53t65.5 -144zM92 1343h-72q30 209 187 209q30 0 94 -22q85 -23 98 -23q41 0 61 18.5t29 59.5
q7 -1 24 0t34.5 1t17.5 -3q-8 -81 -62 -139t-130 -58q-33 0 -107 21q-70 20 -90 20q-33 0 -55 -25t-29 -59z" />
    <glyph glyph-name="adieresis" unicode="&#xe4;" horiz-adv-x="569" 
d="M332 201v405q-34 -20 -50.5 -32.5t-30 -35t-13.5 -51.5v-294q7 -42 47 -39q47 7 47 47zM528 989v-989h-184q-12 25 -12 80h-4q-32 -53 -63.5 -73.5t-90.5 -20.5q-65 0 -99 34.5t-34 100.5v393q0 48 15.5 81.5t41 52.5t56 33.5t60.5 32t55.5 41.5t41 67t15.5 104
q0 4 0.5 17.5t0 21.5t-1 21t-3.5 21.5t-7 17.5t-11 13t-17 4q-12 0 -20.5 -5t-13.5 -15t-8.5 -20t-4 -25t-1 -24.5t0 -25.5t0.5 -20v-153h-199v235q0 91 66 144t178 53t177.5 -53t65.5 -144zM233 1364h-184v199h184v-199zM520 1364h-184v199h184v-199z" />
    <glyph glyph-name="aring" unicode="&#xe5;" horiz-adv-x="569" 
d="M332 201v405q-34 -20 -50.5 -32.5t-30 -35t-13.5 -51.5v-294q7 -42 47 -39q47 7 47 47zM528 989v-989h-184q-12 25 -12 80h-4q-32 -53 -63.5 -73.5t-90.5 -20.5q-65 0 -99 34.5t-34 100.5v393q0 48 15.5 81.5t41 52.5t56 33.5t60.5 32t55.5 41.5t41 67t15.5 104
q0 4 0.5 17.5t0 21.5t-1 21t-3.5 21.5t-7 17.5t-11 13t-17 4q-12 0 -20.5 -5t-13.5 -15t-8.5 -20t-4 -25t-1 -24.5t0 -25.5t0.5 -20v-153h-199v235q0 91 66 144t178 53t177.5 -53t65.5 -144zM207 1456q0 -31 24.5 -55.5t53.5 -24.5t53 24.5t24 55.5t-24 55.5t-53 24.5
t-53.5 -24.5t-24.5 -55.5zM115 1456q0 72 50 123t120 51t120 -51t50 -123t-50 -123t-120 -51t-120 51t-50 123z" />
    <glyph glyph-name="ae" unicode="&#xe6;" horiz-adv-x="872" 
d="M629 696v228q0 2 1 25.5t0 33.5t-5 27t-13.5 24.5t-25.5 7.5q-20 0 -32 -9.5t-15 -24.5t-4.5 -33t0.5 -35.5t0 -32.5v-211h94zM338 201v405q-34 -20 -50.5 -32.5t-30 -35t-13.5 -51.5v-294q7 -42 47 -39q47 7 47 47zM825 942v-383h-290v-358q0 -42 12.5 -57t34.5 -15
t34.5 15t12.5 57v260h196v-271q0 -104 -61.5 -154t-202.5 -50q-85 0 -139.5 33.5t-69.5 99.5h-4q-12 -63 -55.5 -98t-112.5 -35q-65 0 -99 34.5t-34 100.5v393q0 48 15.5 81.5t41 52.5t56 33.5t60.5 32t55.5 41.5t41 67t15.5 104q0 4 0.5 17.5t0 21.5t-1 21t-3.5 21.5
t-7 17.5t-11 13t-17 4q-12 0 -20.5 -5t-13.5 -15t-8.5 -20t-4 -25t-1 -24.5t0 -25.5t0.5 -20v-153h-199v235q0 91 66 144t178 53q83 0 145 -33q50 33 152 33q120 0 178.5 -60t58.5 -184z" />
    <glyph glyph-name="ccedilla" unicode="&#xe7;" horiz-adv-x="569" 
d="M332 461h196v-281q0 -86 -60 -137.5t-163 -56.5l-26 -95q35 5 49 5q70 0 118 -37.5t48 -108.5q0 -48 -24 -83.5t-63.5 -54.5t-81.5 -27.5t-87 -8.5q-62 0 -136 18q-18 5 -26.5 8.5t-11.5 6.5t0 8.5t7 11.5t10.5 18t10.5 25q63 -26 123 -26q46 0 84.5 21t44.5 63
q6 52 -23.5 76t-78.5 24q-39 0 -54 -6l56 162q-94 9 -148.5 61t-54.5 133v809q0 91 66 144t178 53t177.5 -53t65.5 -144v-235h-196v217q0 42 -12.5 56.5t-34.5 14.5t-34.5 -14.5t-12.5 -56.5v-785q0 -37 11 -47t36 -10t36 10t11 47v275z" />
    <glyph glyph-name="egrave" unicode="&#xe8;" horiz-adv-x="569" 
d="M332 461h196v-279q0 -91 -65 -143.5t-178 -52.5t-178.5 52.5t-65.5 143.5v807q0 91 66 144t178 53t177.5 -53t65.5 -144v-430h-290v-373q0 -37 11 -47t36 -10t36 10t11 47v275zM332 696v289q0 37 -11 47t-36 10t-36 -10t-11 -47v-289h94zM231 1647l191 -351h-111
l-282 351h202z" />
    <glyph glyph-name="eacute" unicode="&#xe9;" horiz-adv-x="569" 
d="M332 461h196v-279q0 -91 -65 -143.5t-178 -52.5t-178.5 52.5t-65.5 143.5v807q0 91 66 144t178 53t177.5 -53t65.5 -144v-430h-290v-373q0 -37 11 -47t36 -10t36 10t11 47v275zM332 696v289q0 37 -11 47t-36 10t-36 -10t-11 -47v-289h94zM147 1296l191 351h203l-283 -351
h-111z" />
    <glyph glyph-name="ecircumflex" unicode="&#xea;" horiz-adv-x="569" 
d="M332 461h196v-279q0 -91 -65 -143.5t-178 -52.5t-178.5 52.5t-65.5 143.5v807q0 91 66 144t178 53t177.5 -53t65.5 -144v-430h-290v-373q0 -37 11 -47t36 -10t36 10t11 47v275zM332 696v289q0 37 -11 47t-36 10t-36 -10t-11 -47v-289h94zM133 1296h-108l180 351h164
l176 -351h-109l-147 228z" />
    <glyph glyph-name="edieresis" unicode="&#xeb;" horiz-adv-x="569" 
d="M332 461h196v-279q0 -91 -65 -143.5t-178 -52.5t-178.5 52.5t-65.5 143.5v807q0 91 66 144t178 53t177.5 -53t65.5 -144v-430h-290v-373q0 -37 11 -47t36 -10t36 10t11 47v275zM332 696v289q0 37 -11 47t-36 10t-36 -10t-11 -47v-289h94zM233 1364h-184v199h184v-199z
M520 1364h-184v199h184v-199z" />
    <glyph glyph-name="igrave" unicode="&#xec;" horiz-adv-x="303" 
d="M250 0h-197v1171h197v-1171zM98 1647l191 -351h-111l-282 351h202z" />
    <glyph glyph-name="iacute" unicode="&#xed;" horiz-adv-x="303" 
d="M250 0h-197v1171h197v-1171zM14 1296l191 351h203l-283 -351h-111z" />
    <glyph glyph-name="icircumflex" unicode="&#xee;" horiz-adv-x="303" 
d="M250 0h-197v1171h197v-1171zM0 1296h-109l181 351h164l176 -351h-109l-147 228z" />
    <glyph glyph-name="idieresis" unicode="&#xef;" horiz-adv-x="303" 
d="M250 0h-197v1171h197v-1171zM100 1364h-184v199h184v-199zM387 1364h-184v199h184v-199z" />
    <glyph glyph-name="eth" unicode="&#xf0;" horiz-adv-x="569" 
d="M332 186v725q0 58 -47 58t-47 -58v-725q0 -57 47 -57t47 57zM227 1262l-106 -84l-37 75l96 76q-17 25 -76 92l150 117q43 -54 72 -94l90 69l35 -75l-78 -62q155 -231 155 -540v-603q0 -117 -70 -182t-173 -65q-105 0 -174.5 64.5t-69.5 182.5v603q0 119 53.5 197.5
t124.5 78.5q57 0 82 -16q-22 87 -74 166z" />
    <glyph glyph-name="ntilde" unicode="&#xf1;" horiz-adv-x="569" 
d="M41 0v1171h197v-67h4q21 40 57.5 61t77.5 21q32 0 56 -6t40 -14t26.5 -25t16 -30.5t8.5 -40.5t3.5 -44t0.5 -51v-975h-196v946q0 16 -1 26t-5 22t-13 18t-24 6q-33 0 -42 -19.5t-9 -52.5v-946h-197zM92 1343h-72q30 209 187 209q30 0 94 -22q85 -23 98 -23q41 0 61 18.5
t29 59.5q7 -1 24 0t34.5 1t17.5 -3q-8 -81 -62 -139t-130 -58q-33 0 -107 21q-70 20 -90 20q-33 0 -55 -25t-29 -59z" />
    <glyph glyph-name="ograve" unicode="&#xf2;" horiz-adv-x="569" 
d="M528 989v-807q0 -91 -65 -143.5t-178 -52.5t-178.5 52.5t-65.5 143.5v807q0 91 66 144t178 53t177.5 -53t65.5 -144zM332 186v799q0 37 -11 47t-36 10t-36 -10t-11 -47v-799q0 -37 11 -47t36 -10t36 10t11 47zM231 1647l191 -351h-111l-282 351h202z" />
    <glyph glyph-name="oacute" unicode="&#xf3;" horiz-adv-x="569" 
d="M528 989v-807q0 -91 -65 -143.5t-178 -52.5t-178.5 52.5t-65.5 143.5v807q0 91 66 144t178 53t177.5 -53t65.5 -144zM332 186v799q0 37 -11 47t-36 10t-36 -10t-11 -47v-799q0 -37 11 -47t36 -10t36 10t11 47zM147 1296l191 351h203l-283 -351h-111z" />
    <glyph glyph-name="ocircumflex" unicode="&#xf4;" horiz-adv-x="569" 
d="M528 989v-807q0 -91 -65 -143.5t-178 -52.5t-178.5 52.5t-65.5 143.5v807q0 91 66 144t178 53t177.5 -53t65.5 -144zM332 186v799q0 37 -11 47t-36 10t-36 -10t-11 -47v-799q0 -37 11 -47t36 -10t36 10t11 47zM133 1296h-108l180 351h164l176 -351h-109l-147 228z" />
    <glyph glyph-name="otilde" unicode="&#xf5;" horiz-adv-x="569" 
d="M528 989v-807q0 -91 -65 -143.5t-178 -52.5t-178.5 52.5t-65.5 143.5v807q0 91 66 144t178 53t177.5 -53t65.5 -144zM332 186v799q0 37 -11 47t-36 10t-36 -10t-11 -47v-799q0 -37 11 -47t36 -10t36 10t11 47zM92 1343h-72q30 209 187 209q30 0 94 -22q85 -23 98 -23
q41 0 61 18.5t29 59.5q7 -1 24 0t34.5 1t17.5 -3q-8 -81 -62 -139t-130 -58q-33 0 -107 21q-70 20 -90 20q-33 0 -55 -25t-29 -59z" />
    <glyph glyph-name="odieresis" unicode="&#xf6;" horiz-adv-x="569" 
d="M528 989v-807q0 -91 -65 -143.5t-178 -52.5t-178.5 52.5t-65.5 143.5v807q0 91 66 144t178 53t177.5 -53t65.5 -144zM332 186v799q0 37 -11 47t-36 10t-36 -10t-11 -47v-799q0 -37 11 -47t36 -10t36 10t11 47zM233 1364h-184v199h184v-199zM520 1364h-184v199h184v-199z
" />
    <glyph glyph-name="divide" unicode="&#xf7;" horiz-adv-x="1024" 
d="M1014 496h-1004v180h1004v-180zM360 1014q0 64 46.5 110.5t111.5 46.5q62 0 109 -47t47 -110q0 -59 -47 -107.5t-107 -48.5q-66 0 -113 46.5t-47 109.5zM360 158q0 64 46.5 109.5t111.5 45.5q62 0 109 -46t47 -109q0 -59 -47.5 -108.5t-106.5 -49.5q-66 0 -113 47
t-47 111z" />
    <glyph glyph-name="oslash" unicode="&#xf8;" horiz-adv-x="569" 
d="M328 559l-90 -270v-103q0 -37 11 -47t36 -10t36 10t11 47v373h-4zM242 598l90 268v119q0 37 -11 47t-36 10t-36 -10t-11 -47v-387h4zM528 989v-807q0 -91 -65 -143.5t-178 -52.5q-89 0 -144 30l-30 -90h-109l59 170q-20 36 -20 86v807q0 91 66 144t178 53q83 0 147 -33
l33 94h108l-63 -178q18 -37 18 -80z" />
    <glyph glyph-name="ugrave" unicode="&#xf9;" horiz-adv-x="569" 
d="M528 1171v-1171h-196v68h-4q-21 -40 -57.5 -61t-77.5 -21q-28 0 -50 4t-38 13.5t-27 18.5t-18 27t-11 30.5t-5.5 37.5t-2 39t-0.5 44v9v962h197v-946q0 -21 2 -34t12 -25t29 -12q33 0 42 19t9 52v946h196zM231 1647l191 -351h-111l-282 351h202z" />
    <glyph glyph-name="uacute" unicode="&#xfa;" horiz-adv-x="569" 
d="M527 1171v-1171h-196v68h-4q-21 -40 -57.5 -61t-77.5 -21q-28 0 -50 4t-38 13.5t-27 18.5t-18 27t-11 30.5t-5.5 37.5t-2 39t-0.5 44v9v962h197v-946q0 -21 2 -34t12 -25t29 -12q33 0 42 19t9 52v946h196zM146 1296l191 351h203l-283 -351h-111z" />
    <glyph glyph-name="ucircumflex" unicode="&#xfb;" horiz-adv-x="569" 
d="M528 1171v-1171h-196v68h-4q-21 -40 -57.5 -61t-77.5 -21q-28 0 -50 4t-38 13.5t-27 18.5t-18 27t-11 30.5t-5.5 37.5t-2 39t-0.5 44v9v962h197v-946q0 -21 2 -34t12 -25t29 -12q33 0 42 19t9 52v946h196zM133 1296h-108l180 351h164l176 -351h-109l-147 228z" />
    <glyph glyph-name="udieresis" unicode="&#xfc;" horiz-adv-x="569" 
d="M527 1171v-1171h-196v68h-4q-21 -40 -57.5 -61t-77.5 -21q-28 0 -50 4t-38 13.5t-27 18.5t-18 27t-11 30.5t-5.5 37.5t-2 39t-0.5 44v9v962h197v-946q0 -21 2 -34t12 -25t29 -12q33 0 42 19t9 52v946h196zM232 1364h-184v199h184v-199zM519 1364h-184v199h184v-199z" />
    <glyph glyph-name="yacute" unicode="&#xfd;" horiz-adv-x="569" 
d="M143 203l-135 968h195l43 -389q20 -183 33 -524h8q2 24 10 209t20 274l48 430h194l-174 -1241q-7 -46 -13 -75t-17.5 -52t-24.5 -34.5t-38 -19t-52 -9.5t-72 -2q-24 0 -64 1t-57 1v154h59q41 0 55.5 18t14.5 51t-15.5 123t-17.5 117zM147 1296l191 351h203l-283 -351
h-111z" />
    <glyph glyph-name="thorn" unicode="&#xfe;" horiz-adv-x="569" 
d="M332 225v721q0 42 -12.5 57t-34.5 15t-34.5 -15t-12.5 -57v-721q0 -42 12.5 -56.5t34.5 -14.5t34.5 14.5t12.5 56.5zM41 -262v1720h197v-356h4q61 84 155 84q131 0 131 -178v-844q0 -178 -145 -178q-84 0 -141 88h-4v-336h-197z" />
    <glyph glyph-name="ydieresis" unicode="&#xff;" horiz-adv-x="569" 
d="M143 203l-135 968h195l43 -389q20 -183 33 -524h8q2 24 10 209t20 274l48 430h194l-174 -1241q-7 -46 -13 -75t-17.5 -52t-24.5 -34.5t-38 -19t-52 -9.5t-72 -2q-24 0 -64 1t-57 1v154h59q41 0 55.5 18t14.5 51t-15.5 123t-17.5 117zM233 1364h-184v199h184v-199z
M520 1364h-184v199h184v-199z" />
    <glyph glyph-name="dotlessi" unicode="&#x131;" horiz-adv-x="303" 
d="M250 0h-197v1171h197v-1171z" />
    <glyph glyph-name="Lslash" unicode="&#x141;" horiz-adv-x="569" 
d="M63 1458h218v-543l139 113v-197l-139 -102v-539h276v-190h-494v569l-75 -55v197l75 55v692z" />
    <glyph glyph-name="lslash" unicode="&#x142;" horiz-adv-x="303" 
d="M53 1458h197v-471l74 86v-196l-74 -86v-791h-197v582l-73 -74v197l73 73v680z" />
    <glyph glyph-name="OE" unicode="&#x152;" horiz-adv-x="909" 
d="M406 242v942q0 6 0.5 23t0 23.5t-1.5 20.5t-3.5 20.5t-7.5 16.5t-12 14t-17.5 7.5t-24.5 3.5q-35 0 -53 -19.5t-15 -52.5v-975v-10q0 -25 1 -39t6.5 -33.5t21 -29t39.5 -9.5q40 0 55 28.5t11 68.5zM623 1268v-375h274v-191h-274v-512h282v-190h-243q-129 0 -197 -14
q-5 -1 -32.5 -6t-49 -7t-53.5 -2q-146 0 -212 71.5t-63 219.5v938q-3 133 73 210t208 77q27 0 120.5 -14t217.5 -15h231v-190h-282z" />
    <glyph glyph-name="oe" unicode="&#x153;" horiz-adv-x="872" 
d="M629 696v275q0 42 -12.5 56.5t-34.5 14.5t-34.5 -14.5t-12.5 -56.5v-275h94zM825 942v-383h-290v-358q0 -42 12.5 -57t34.5 -15t34.5 15t12.5 57v260h196v-271q0 -104 -61.5 -154t-202.5 -50q-83 0 -135 30q-56 -30 -150 -30q-121 0 -175 55t-54 172v731q0 114 58.5 178
t164.5 64q98 0 162 -35q52 35 156 35q120 0 178.5 -60t58.5 -184zM244 971v-770q0 -42 12.5 -57t34.5 -15t34.5 15t12.5 57v770q0 42 -12.5 56.5t-34.5 14.5t-34.5 -14.5t-12.5 -56.5z" />
    <glyph glyph-name="Scaron" unicode="&#x160;" 
d="M274 553v-317q0 -53 16 -72t52 -19q34 0 50 19t16 72v153q0 48 -26 102.5t-65 102.5l-84.5 104t-84.5 107t-65 111t-26 116v209q0 68 25 118t67.5 76.5t89.5 39t101 12.5t102 -12t90.5 -39t67.5 -77t25 -118v-307h-217v289q0 53 -15.5 71.5t-50.5 18.5q-36 0 -52 -18.5
t-16 -71.5v-181q0 -34 55 -112t120.5 -155.5t120.5 -164t55 -135.5v-258q0 -68 -25 -118t-67.5 -77t-90.5 -39t-102 -12t-101 12.5t-89.5 39t-67.5 76.5t-25 118v336h217zM426 1544h-164l-180 350h108l154 -227l150 227h108z" />
    <glyph glyph-name="scaron" unicode="&#x161;" horiz-adv-x="569" 
d="M41 457h197v-256q0 -42 12.5 -57t34.5 -15t34.5 15t12.5 57v121q0 52 -30 106.5t-72.5 101.5t-85.5 94.5t-73 101.5t-30 105v158q0 91 66 144t178 53t177.5 -53t65.5 -144v-241h-196v223q0 42 -12.5 56.5t-34.5 14.5t-34.5 -14.5t-12.5 -56.5v-97q0 -32 30 -75t72.5 -87
t85 -90.5t72.5 -100t30 -101.5v-238q0 -91 -65 -143.5t-178 -52.5t-178.5 52.5t-65.5 143.5v275zM369 1296h-164l-180 351h108l154 -228l149 228h109z" />
    <glyph glyph-name="Ydieresis" unicode="&#x178;" 
d="M8 1458h223l72 -317q9 -42 15 -71t10 -58.5t6.5 -47.5t7 -62t8.5 -77h4q10 195 37 305l78 328h203l-223 -903v-555h-218v545zM291 1612h-185v198h185v-198zM578 1612h-185v198h185v-198z" />
    <glyph glyph-name="Zcaron" unicode="&#x17d;" horiz-adv-x="530" 
d="M27 1458h477v-160l-254 -1108h256v-190h-483v152l251 1116h-247v190zM350 1544h-164l-180 350h109l153 -227l150 227h108z" />
    <glyph glyph-name="zcaron" unicode="&#x17e;" horiz-adv-x="454" 
d="M8 162l223 854h-223v155h420v-155l-225 -860h241v-156h-436v162zM311 1296h-164l-180 351h109l153 -228l150 228h108z" />
    <glyph glyph-name="florin" unicode="&#x192;" 
d="M645 854h-160l-157 -920q-19 -93 -78.5 -144.5t-149.5 -51.5q-18 0 -54.5 6t-47.5 14l16 144q48 -2 73.5 11t33.5 54l149 887h-137v156h162l20 125q10 56 15 83t14.5 68.5t17.5 60.5t21 45.5t28 38t36 24t47.5 16.5t60.5 4q22 0 65.5 -6.5t63.5 -6.5l-27 -151
q-63 9 -82 -13q-4 -6 -8 -14.5t-6 -16t-5.5 -22.5t-6.5 -24l-39 -211h135v-156z" />
    <glyph glyph-name="circumflex" unicode="&#x2c6;" horiz-adv-x="303" 
d="M0 1296h-109l181 351h164l176 -351h-109l-147 228z" />
    <glyph glyph-name="caron" unicode="&#x2c7;" horiz-adv-x="303" 
d="M236 1296h-164l-181 351h109l154 -228l149 228h109z" />
    <glyph glyph-name="uni02C9" unicode="&#x2c9;" horiz-adv-x="303" 
d="M-82 1518h469v-132h-469v132z" />
    <glyph glyph-name="breve" unicode="&#x2d8;" horiz-adv-x="303" 
d="M-102 1593h65q9 -73 51.5 -104t118.5 -31q35 0 54 1t47 4.5t44 12t33 23t26 38.5t11 56h60q2 -115 -68 -186.5t-186 -71.5t-183 70t-73 188z" />
    <glyph glyph-name="dotaccent" unicode="&#x2d9;" horiz-adv-x="303" 
d="M244 1364h-185v199h185v-199z" />
    <glyph glyph-name="ring" unicode="&#x2da;" horiz-adv-x="303" 
d="M74 1456q0 -31 24.5 -55.5t53.5 -24.5t53 24.5t24 55.5t-24 55.5t-53 24.5t-53.5 -24.5t-24.5 -55.5zM-18 1456q0 72 50 123t120 51t120 -51t50 -123t-50 -123t-120 -51t-120 51t-50 123z" />
    <glyph glyph-name="ogonek" unicode="&#x2db;" horiz-adv-x="303" 
d="M193 0h143l-13 -6q-13 -5 -33.5 -15.5t-45.5 -24.5t-50 -34t-45.5 -41.5t-33.5 -49.5t-13 -56q0 -71 38.5 -99t92.5 -28q60 0 123 26l27 -53q-31 -15 -91 -29t-130 -14q-55 0 -100 14.5t-78 55t-33 104.5q0 167 242 250z" />
    <glyph glyph-name="tilde" unicode="&#x2dc;" horiz-adv-x="303" 
d="M-41 1343h-72q30 209 187 209q30 0 94 -22q85 -23 98 -23q41 0 61 18.5t29 59.5q7 -1 24 0t34.5 1t17.5 -3q-8 -81 -62 -139t-130 -58q-34 0 -107 21q-70 20 -90 20q-33 0 -55 -25t-29 -59z" />
    <glyph glyph-name="hungarumlaut" unicode="&#x2dd;" horiz-adv-x="303" 
d="M-117 1296l135 351h197l-221 -351h-111zM143 1296l191 351h203l-283 -351h-111z" />
    <glyph glyph-name="uni03A9" unicode="&#x3a9;" horiz-adv-x="825" 
d="M199 176v6q-62 118 -101 279t-39 342q0 190 44 338.5t126.5 232.5t190.5 84q87 0 154 -54.5t106.5 -146.5t59.5 -202t20 -232q0 -183 -42 -356.5t-100 -284.5v-6h160v-176h-315v125q48 78 74 237q32 174 32 404q0 101 -8 186.5t-25 160t-48.5 117t-75.5 42.5
q-80 0 -122 -138.5t-42 -371.5q0 -208 32.5 -386t75.5 -251v-125h-315v176h158z" />
    <glyph glyph-name="uni03BC" unicode="&#x3bc;" horiz-adv-x="569" 
d="M528 1171v-1171h-196v68h-4q-31 -61 -90 -74v-256h-197v1433h197v-946q0 -21 2 -34t12 -25t29 -12q33 0 42 19t9 52v946h196z" />
    <glyph glyph-name="pi" unicode="&#x3c0;" horiz-adv-x="786" 
d="M750 891h-82v-635q0 -165 16 -256h-174q-27 76 -27 260v631h-155q-6 -202 -28 -460.5t-58 -430.5h-176q36 182 57.5 440t23.5 451q-68 0 -108 -12l-23 143q27 25 84.5 42t135.5 17h526z" />
    <glyph glyph-name="endash" unicode="&#x2013;" horiz-adv-x="1024" 
d="M1024 545h-1024v137h1024v-137z" />
    <glyph glyph-name="emdash" unicode="&#x2014;" horiz-adv-x="2048" 
d="M0 545v137h2048v-137h-2048z" />
    <glyph glyph-name="quoteleft" unicode="&#x2018;" horiz-adv-x="342" 
d="M215 1458l70 -428h-129l-129 428h188z" />
    <glyph glyph-name="quoteright" unicode="&#x2019;" horiz-adv-x="342" 
d="M127 1458h188l-129 -428h-129z" />
    <glyph glyph-name="quotesinglbase" unicode="&#x201a;" horiz-adv-x="342" 
d="M127 227h188l-129 -428h-129z" />
    <glyph glyph-name="quotedblleft" unicode="&#x201c;" horiz-adv-x="645" 
d="M229 1458l70 -428h-129l-129 428h188zM496 1458l69 -428h-129l-129 428h189z" />
    <glyph glyph-name="quotedblright" unicode="&#x201d;" horiz-adv-x="645" 
d="M150 1458h188l-129 -428h-129zM416 1458h188l-129 -428h-129z" />
    <glyph glyph-name="quotedblbase" unicode="&#x201e;" horiz-adv-x="645" 
d="M150 227h188l-129 -428h-129zM416 227h188l-129 -428h-129z" />
    <glyph glyph-name="dagger" unicode="&#x2020;" 
d="M662 838h-220v-1076h-202v1076h-220v174h220v446h202v-446h220v-174z" />
    <glyph glyph-name="daggerdbl" unicode="&#x2021;" 
d="M20 1026h220v432h202v-432h220v-174h-220v-490h220v-174h-220v-426h-202v426h-220v174h220v490h-220v174z" />
    <glyph glyph-name="bullet" unicode="&#x2022;" horiz-adv-x="1024" 
d="M870 717q0 -149 -104.5 -254t-253.5 -105q-150 0 -254 104t-104 255q-2 149 102.5 253.5t255.5 104.5q149 0 253.5 -104.5t104.5 -253.5z" />
    <glyph glyph-name="ellipsis" unicode="&#x2026;" horiz-adv-x="2048" 
d="M442 0h-204v227h204v-227zM1126 0h-204v227h204v-227zM1810 0h-204v227h204v-227z" />
    <glyph glyph-name="perthousand" unicode="&#x2030;" horiz-adv-x="1593" 
d="M498 1296v-458q-4 -91 -64 -139t-160 -48q-206 0 -206 174v367q0 51 5 89.5t19 73t37.5 56.5t62 34.5t91.5 12.5q87 0 151 -41t64 -121zM233 1260v-398q0 -23 1 -33t5.5 -24.5t16 -20.5t31.5 -6q11 0 19 3t13 10.5t8 13.5t4 18l1.5 18t0 19.5t-0.5 16.5v360v12.5v14
t-0.5 14t-1.5 14t-3 12t-5.5 11.5t-8 8t-11.5 6t-15 2q-34 0 -44 -17t-10 -54zM606 174v367q0 51 5 89.5t19 73t37.5 56.5t62 34.5t91.5 12.5q87 0 151 -41t64 -121v-459q-4 -91 -63.5 -138.5t-159.5 -47.5q-95 0 -151 41.5t-56 132.5zM772 608v-397v-27t2.5 -21.5t8 -20
t16 -10.5t26.5 -5q11 0 19 3t13 10.5t8 13t4 17.5l1.5 18t0 19.5t-0.5 16.5v361v12.5v14t-0.5 14t-1.5 14t-3 12t-5.5 11.5t-8 8t-11.5 6t-15 2q-34 0 -43.5 -16.5t-9.5 -55.5zM1542 645v-459q0 -90 -61 -138t-162 -48q-95 0 -151 41.5t-56 132.5v367q0 51 5 89.5t19 73
t37.5 56.5t62 34.5t91.5 12.5q87 0 151 -41t64 -121zM1278 608v-397v-27t2.5 -21.5t8 -20t16 -10.5t26.5 -5q11 0 19 3t13 10.5t8 13t4 17.5l1.5 18t0 19.5t-0.5 16.5v361v12.5v14t-0.5 14t-1.5 14t-3 12t-5.5 11.5t-8 8t-11.5 6t-15 2q-34 0 -43.5 -17t-9.5 -55zM367 -16
h-99l477 1491h99z" />
    <glyph glyph-name="guilsinglleft" unicode="&#x2039;" horiz-adv-x="378" 
d="M330 1026v-250l-178 -190l178 -187v-260l-281 314v266z" />
    <glyph glyph-name="guilsinglright" unicode="&#x203a;" horiz-adv-x="378" 
d="M49 776v250l281 -307v-266l-281 -314v260l178 187z" />
    <glyph glyph-name="fraction" unicode="&#x2044;" horiz-adv-x="342" 
d="M684 1475l-917 -1491h-109l917 1491h109z" />
    <glyph glyph-name="Euro" unicode="&#x20ac;" 
d="M98 238v317h-123l33 117h90v143h-123l33 117h90v289q0 123 80 192q74 62 219 62q80 0 154 -25q70 -23 111 -72l-54 -178q-24 49 -73 76q-44 24 -99 24q-68 0 -96 -34q-25 -31 -25 -92v-242h232l-33 -117h-199v-143h172l-32 -117h-140v-266q0 -76 29 -105q30 -30 96 -30
q55 0 103 22q50 21 98 72v-195q-53 -35 -100 -49q-73 -24 -168 -24q-122 0 -193 59q-36 31 -59 83t-23 116z" />
    <glyph glyph-name="afii61289" unicode="&#x2113;" horiz-adv-x="669" 
d="M582 297l71 -78q-88 -227 -256 -227q-259 0 -252 373v30q-11 -14 -36 -41.5l-35 -38.5l-45 111q78 85 116 141v549q0 235 71 354t179 119q83 0 126.5 -88t43.5 -246q0 -329 -237 -692v-129q0 -153 25.5 -217.5t82.5 -64.5q43 0 77.5 39.5t68.5 105.5zM328 1071v-301
q65 122 103 255t38 249q0 84 -15.5 121t-50.5 37q-75 0 -75 -361z" />
    <glyph glyph-name="trademark" unicode="&#x2122;" horiz-adv-x="2027" 
d="M784 1458v-143h-249v-701h-181v701h-250v143h680zM1227 1458l223 -575l219 575h254v-844h-168v643h-4l-240 -643h-127l-239 643h-4v-643h-168v844h254z" />
    <glyph glyph-name="Omega" unicode="&#x2126;" horiz-adv-x="825" 
d="M199 176v6q-62 118 -101 279t-39 342q0 190 44 338.5t126.5 232.5t190.5 84q87 0 154 -54.5t106.5 -146.5t59.5 -202t20 -232q0 -183 -42 -356.5t-100 -284.5v-6h160v-176h-315v125q48 78 74 237q32 174 32 404q0 101 -8 186.5t-25 160t-48.5 117t-75.5 42.5
q-80 0 -122 -138.5t-42 -371.5q0 -208 32.5 -386t75.5 -251v-125h-315v176h158z" />
    <glyph glyph-name="estimated" unicode="&#x212e;" horiz-adv-x="1798" 
d="M1726 709h-1341q-10 0 -10 -9v-407q0 -26 16 -45q101 -104 231.5 -162.5t276.5 -58.5q157 0 296 65.5t239 181.5h118q-112 -133 -285.5 -210.5t-369.5 -77.5q-168 0 -321.5 58.5t-264 158t-176 237t-65.5 289.5t65.5 290t176 238t264 159t321.5 59q169 0 322.5 -59
t264.5 -159t176.5 -238t65.5 -290v-20zM1421 762v407q0 30 -20 50q-100 99 -229.5 155t-272.5 56q-144 0 -274.5 -58.5t-231.5 -161.5q-18 -18 -18 -49v-399q0 -4 3 -9t7 -5h1028q8 0 8 14z" />
    <glyph glyph-name="partialdiff" unicode="&#x2202;" horiz-adv-x="770" 
d="M152 1362l-50 174q104 100 234 100q54 0 104.5 -24t98 -81.5t82.5 -143t56 -217.5t21 -296q0 -441 -95 -658.5t-273 -217.5q-122 0 -194.5 131t-72.5 336q0 251 89.5 401t207.5 150q56 0 94 -28t58 -70h4v55q0 125 -24.5 234t-72.5 179t-110 70q-82 0 -157 -94zM346 182
h4q64 0 106 157.5t48 371.5q-12 56 -40.5 92.5t-72.5 36.5q-43 0 -76.5 -56t-50 -144t-16.5 -189q0 -127 25.5 -198t72.5 -71z" />
    <glyph glyph-name="Delta" unicode="&#x2206;" horiz-adv-x="833" 
d="M45 0v125l274 1339h211l258 -1333v-131h-743zM225 170h381l-117 618q-8 50 -34 182.5t-33 186.5h-4q-5 -51 -31 -171.5t-35 -178.5z" />
    <glyph glyph-name="product" unicode="&#x220f;" horiz-adv-x="958" 
d="M909 1243h-112v-1442h-189v1442h-260v-1442h-188v1442h-113v199h862v-199z" />
    <glyph glyph-name="summation" unicode="&#x2211;" horiz-adv-x="729" 
d="M700 -201h-657v152l315 676l-309 661v154h627v-174h-393v-8l280 -586l-321 -662v-8h458v-205z" />
    <glyph glyph-name="minus" unicode="&#x2212;" horiz-adv-x="1024" 
d="M1014 496h-1004v180h1004v-180z" />
    <glyph glyph-name="uni2215" unicode="&#x2215;" horiz-adv-x="342" 
d="M684 1475l-917 -1491h-109l917 1491h109z" />
    <glyph glyph-name="uni2219" unicode="&#x2219;" horiz-adv-x="339" 
d="M61 586q0 44 31.5 76t77.5 32q45 0 78 -32t33 -76q0 -45 -33 -78t-78 -33q-46 0 -77.5 32.5t-31.5 78.5z" />
    <glyph glyph-name="radical" unicode="&#x221a;" horiz-adv-x="835" 
d="M817 1737l-291 -2020h-149l-193 916l-104 -39l-27 125l252 98l115 -596q5 -41 16 -113.5t13 -91.5l2 -4q1 11 4 51.5t7 82.5t9 79l221 1512h125z" />
    <glyph glyph-name="infinity" unicode="&#x221e;" horiz-adv-x="1234" 
d="M1161 600v-2q0 -128 -76 -206.5t-180 -78.5q-77 0 -142.5 39t-139.5 142q-71 -88 -139.5 -134.5t-157.5 -46.5q-104 0 -178 77.5t-74 197.5q0 124 74 202t190 78q85 0 152 -44.5t133 -133.5q69 80 105 109q84 68 185 69q106 0 177 -74.5t71 -193.5zM340 428h2
q32 0 61 11.5t57.5 36t48 46.5t50.5 60q-29 40 -40.5 55.5t-37.5 45t-44.5 41t-45.5 22t-57 10.5q-70 0 -108 -47.5t-38 -122.5q1 -67 45 -112.5t107 -45.5zM901 756h-2q-20 0 -39 -5t-38 -17.5t-32.5 -22t-32.5 -29.5t-27 -29t-26.5 -32t-21.5 -27q75 -97 119.5 -131.5
t105.5 -34.5q62 0 101 50.5t39 109.5q0 75 -39.5 121.5t-106.5 46.5z" />
    <glyph glyph-name="integral" unicode="&#x222b;" horiz-adv-x="638" 
d="M571 1757l-20 -151q-23 10 -43 10q-41 0 -70 -51q-37 -68 -37 -353q0 -164 8.5 -494t8.5 -515q0 -305 -53 -422q-29 -66 -83 -96.5t-118 -30.5q-71 0 -103 24l25 160q33 -14 53 -14q42 0 60 45q30 64 30 326q0 187 -9 525t-9 509q0 178 20 281.5t68 172.5q31 42 82 67.5
t104 25.5q48 0 86 -19z" />
    <glyph glyph-name="approxequal" unicode="&#x2248;" horiz-adv-x="753" 
d="M629 858l73 -55q-24 -79 -76.5 -132t-115.5 -53q-67 0 -150 64q-42 32 -66 44.5t-52 12.5q-22 0 -39 -9t-32.5 -30.5t-23 -35.5t-22.5 -46l-74 54q31 83 82.5 132.5t118.5 49.5q21 0 40.5 -4t37 -12t28 -14t26.5 -16.5t19 -12.5t15 -10.5t15 -10.5t13 -9t14 -9t12 -6.5
t12.5 -6.5t11 -4t12 -3t10.5 -1q36 0 59 30t52 93zM629 561l73 -55q-26 -79 -77.5 -130.5t-114.5 -51.5q-36 0 -69 13.5t-81 47.5q-32 24 -45 33t-33 17.5t-40 8.5q-29 0 -52.5 -20t-35.5 -41.5t-29 -60.5l-74 53q31 83 82.5 132.5t118.5 49.5q21 0 40.5 -4t37 -12t28 -14
t26.5 -16.5t19 -12.5q10 -6 33 -21.5t32.5 -21t24 -11.5t25.5 -6q36 0 60.5 31t50.5 92z" />
    <glyph glyph-name="notequal" unicode="&#x2260;" horiz-adv-x="753" 
d="M561 948l-53 -135h174v-123h-211l-82 -215h293v-123h-330l-63 -162l-90 29l51 133h-180v123h217l82 215h-299v123h336l63 164z" />
    <glyph glyph-name="lessequal" unicode="&#x2264;" horiz-adv-x="753" 
d="M678 233l-600 381v131l600 383v-149l-492 -295v-4l492 -297v-150zM686 37h-612v129h612v-129z" />
    <glyph glyph-name="greaterequal" unicode="&#x2265;" horiz-adv-x="753" 
d="M84 1128l598 -383v-129l-598 -383v150l491 295v4l-491 297v149zM688 37h-612v129h612v-129z" />
    <glyph glyph-name="lozenge" unicode="&#x25ca;" horiz-adv-x="833" 
d="M758 719l-269 -789h-161l-250 789l266 792h164zM584 715l-131 459q-14 51 -27 147h-8q-14 -103 -27 -147l-141 -449l135 -469q12 -46 23 -139h10q9 71 24 135z" />
    </font>
</defs>
</svg>
