<?xml version="1.0" standalone="no"?>
<!DOCTYPE svg PUBLIC "-//W3C//DTD SVG 1.1//EN" "http://www.w3.org/Graphics/SVG/1.1/DTD/svg11.dtd" >
<svg xmlns="http://www.w3.org/2000/svg" xmlns:xlink="http://www.w3.org/1999/xlink" version="1.1">
<metadata>
Created by FontForge 20170731 at Tue Jul  4 13:14:06 2023
 By Aleksey,,,
Copyright (c) 1988, 1990, 1991, 2002 Adobe Systems Incorporated.  All Rights Reserved. (c) 1981, 2002 Heidelberger Druckmaschinen AG. All rights reserved.
</metadata>
<defs>
<font id="HelveticaLTStd-ExtraComp" horiz-adv-x="757" >
  <font-face 
    font-family="Helvetica LT Std ExtCompressed"
    font-weight="400"
    font-stretch="ultra-condensed"
    units-per-em="2048"
    panose-1="2 11 7 8 3 5 2 6 2 4"
    ascent="1638"
    descent="-410"
    x-height="1171"
    cap-height="1458"
    bbox="-252 -512 2048 1958"
    underline-thickness="102"
    underline-position="-307"
    unicode-range="U+0020-FB02"
  />
<missing-glyph horiz-adv-x="1024" 
d="M0 0v1434h1024v-1434h-1024zM512 809l348 522h-696zM573 717l349 -522v1044zM164 102h696l-348 523zM102 1239v-1044l349 522z" />
    <glyph glyph-name="fi" unicode="fi" 
d="M737 0h-260v1171h260v-1171zM737 1237h-260v221h260v-221zM420 1458v-192h-19q-38 0 -49.5 -16t-11.5 -56v-23h80v-192h-80v-979h-260v979h-62v192h62v76q0 121 51.5 166t179.5 45h109z" />
    <glyph glyph-name="fl" unicode="fl" 
d="M737 0h-260v1458h260v-1458zM80 0v979h-62v192h62v76q0 121 51.5 166t179.5 45h109v-192h-19q-38 0 -49.5 -16t-11.5 -56v-23h80v-192h-80v-979h-260z" />
    <glyph glyph-name=".notdef" horiz-adv-x="1024" 
d="M0 0v1434h1024v-1434h-1024zM512 809l348 522h-696zM573 717l349 -522v1044zM164 102h696l-348 523zM102 1239v-1044l349 522z" />
    <glyph glyph-name=".null" horiz-adv-x="0" 
 />
    <glyph glyph-name="nonmarkingreturn" horiz-adv-x="682" 
 />
    <glyph glyph-name="space" unicode=" " horiz-adv-x="378" 
 />
    <glyph glyph-name="exclam" unicode="!" horiz-adv-x="530" 
d="M395 375h-260v1083h260v-1083zM395 0h-260v303h260v-303z" />
    <glyph glyph-name="quotedbl" unicode="&#x22;" horiz-adv-x="681" 
d="M406 903v555h245v-555h-245zM31 903v555h245v-555h-245z" />
    <glyph glyph-name="numbersign" unicode="#" 
d="M469 852h-127l-29 -299h127zM356 995h127l43 463h142l-43 -463h108l-8 -143h-115l-28 -299h110l-8 -143h-117l-39 -410h-141l39 410h-127l-39 -410h-141l39 410h-133l8 143h139l29 299h-123l8 143h129l43 463h141z" />
    <glyph glyph-name="dollar" unicode="$" 
d="M461 1593v-106q108 0 180 -72q74 -77 74 -194v-283h-289v236q0 96 -51 96t-51 -96q2 -82 25 -144t58.5 -101.5t78 -74.5t84.5 -74.5t77 -90t56.5 -133t21.5 -191.5v-127q0 -122 -75.5 -194.5t-188.5 -72.5v-106h-133v106q-122 0 -199 68q-84 74 -84 199v335h289v-288
q0 -97 51 -97t51 97q-1 84 -17.5 152t-48.5 119t-62 83.5t-75 71.5q-6 5 -29.5 25.5t-30 26.5t-27 25t-27 28t-22.5 28t-22 32t-16 33.5t-13.5 39t-7 41.5t-3.5 48v183q0 128 83.5 197t209.5 69v106h133z" />
    <glyph glyph-name="percent" unicode="%" horiz-adv-x="1099" 
d="M807 627v-447q0 -49 35 -49t35 49v447q0 49 -35 49t-35 -49zM623 240v327q0 120 53 180t166 60t166 -60t53 -180v-327q0 -120 -53 -180t-166 -60t-166 60t-53 180zM39 891v328q0 120 53 179.5t166 59.5t166 -59.5t53 -179.5v-328q0 -120 -53 -180t-166 -60t-166 60
t-53 180zM223 1278v-447q0 -49 35 -49t35 49v447q0 49 -35 49t-35 -49zM238 -29l507 1516h119l-504 -1516h-122z" />
    <glyph glyph-name="ampersand" unicode="&#x26;" horiz-adv-x="872" 
d="M524 238l-202 374h-5v-280q0 -144 101 -144q62 0 106 50zM338 1214v-167q0 -35 29 -84q73 11 73 108v143q0 23 -14.5 39.5t-36.5 16.5t-36.5 -16.5t-14.5 -39.5zM578 801h233v-199q0 -107 -9 -211.5t-9 -122.5q0 -20 8.5 -28.5t27.5 -8.5h39v-231h-112q-69 4 -99 43
q-48 -35 -119.5 -53.5t-138.5 -18.5q-170 0 -270 83t-100 249v260q0 54 4.5 92t18.5 79t45 71t79 49q-58 64 -78 122.5t-22 141.5v41q0 167 65 247.5t236 80.5q97 0 162 -21.5t100 -66t49 -101.5t14 -139v-41q-2 -48 -6 -81.5t-17.5 -62.5t-27 -47.5t-46 -41.5t-61 -39.5
t-85.5 -46.5l114 -209h5v211z" />
    <glyph glyph-name="quotesingle" unicode="'" horiz-adv-x="454" 
d="M104 903v555h246v-555h-246z" />
    <glyph glyph-name="parenleft" unicode="(" horiz-adv-x="606" 
d="M317 1487h236q-120 -221 -178 -423.5t-58 -432.5q0 -238 48 -421t163 -403h-229q-246 434 -246 826q0 381 264 854z" />
    <glyph glyph-name="parenright" unicode=")" horiz-adv-x="606" 
d="M289 -193h-236q119 221 177.5 424t58.5 433q0 238 -48 420.5t-163 402.5h229q246 -434 246 -825q0 -382 -264 -855z" />
    <glyph glyph-name="asterisk" unicode="*" 
d="M102 1321l189 -68v205h172v-207l188 76l60 -170l-201 -59l143 -183l-135 -98l-139 184l-133 -184l-148 98l142 181l-195 59z" />
    <glyph glyph-name="plus" unicode="+" horiz-adv-x="1138" 
d="M451 705v385h237v-385h383v-238h-383v-385h-237v385h-383v238h383z" />
    <glyph glyph-name="comma" unicode="," horiz-adv-x="378" 
d="M18 -258l74 561h266l-174 -561h-166z" />
    <glyph glyph-name="hyphen" unicode="-" horiz-adv-x="530" 
d="M442 541h-354v188h354v-188z" />
    <glyph glyph-name="period" unicode="." horiz-adv-x="378" 
d="M319 0h-260v303h260v-303z" />
    <glyph glyph-name="slash" unicode="/" horiz-adv-x="417" 
d="M-10 -29l274 1516h166l-280 -1516h-160z" />
    <glyph glyph-name="zero" unicode="0" 
d="M39 238v983q0 71 27.5 123.5t76 83t107.5 45t129 14.5t129 -14.5t107.5 -45t76 -83t27.5 -123.5v-983q0 -57 -18.5 -102.5t-50 -76t-75 -50.5t-92.5 -29t-104 -9t-104 9t-92.5 29t-75 50.5t-50 76t-18.5 102.5zM430 285v889q0 96 -51 96t-51 -96v-889q0 -97 51 -97t51 97
z" />
    <glyph glyph-name="one" unicode="1" 
d="M244 0v1118h-164v176q95 3 146.5 40.5t76.5 123.5h229v-1458h-288z" />
    <glyph glyph-name="two" unicode="2" 
d="M719 217v-217h-680v301q0 72 40.5 153t97.5 158.5t114.5 161t98 188.5t40.5 212q0 96 -51 96t-51 -96v-236h-289v283q0 71 27.5 123.5t76 83t107.5 45t129 14.5t129 -14.5t107.5 -45t76 -83t27.5 -123.5v-62q0 -114 -40.5 -230t-97.5 -209.5t-114.5 -179.5t-98 -170.5
t-40.5 -152.5h391z" />
    <glyph glyph-name="three" unicode="3" 
d="M246 647v217h57q78 0 102.5 21t24.5 88v201q0 96 -51 96t-51 -96v-236h-289v283q0 71 27.5 123.5t76 83t107.5 45t129 14.5t129 -14.5t107.5 -45t76 -83t27.5 -123.5v-166q0 -49 -5 -86.5t-18 -73t-35 -60.5t-57.5 -42.5t-83.5 -24.5v-10q48 -7 83.5 -24.5t57.5 -42.5
t35 -60.5t18 -73t5 -86.5v-233q0 -57 -18.5 -102.5t-50 -76t-75 -50.5t-92.5 -29t-104 -9t-104 9t-92.5 29t-75 50.5t-50 76t-18.5 102.5v335h289v-288q0 -97 51 -97t51 97v254q0 67 -24.5 87.5t-102.5 20.5h-57z" />
    <glyph glyph-name="four" unicode="4" 
d="M-6 365v204l268 889h402v-889h92v-204h-92v-365h-279v365h-391zM381 1264l-162 -695h166v695h-4z" />
    <glyph glyph-name="five" unicode="5" 
d="M39 578h289v-293q0 -97 51 -97t51 97v440q0 30 -9.5 46.5t-41.5 16.5q-33 0 -42 -16.5t-9 -46.5h-289v733h672v-217h-383v-278h4q23 34 68.5 52.5t99.5 18.5q114 0 166.5 -65.5t52.5 -194.5v-536q0 -57 -18.5 -102.5t-50 -76t-75 -50.5t-92.5 -29t-104 -9t-104 9
t-92.5 29t-75 50.5t-50 76t-18.5 102.5v340z" />
    <glyph glyph-name="six" unicode="6" 
d="M719 942h-289v232q0 96 -51 96t-51 -96v-357q37 31 72.5 44t84.5 13q127 0 180.5 -72t53.5 -200v-364q0 -57 -18.5 -102.5t-50 -76t-75 -50.5t-92.5 -29t-104 -9t-104 9t-92.5 29t-75 50.5t-50 76t-18.5 102.5v983q0 71 27.5 123.5t76 83t107.5 45t129 14.5t129 -14.5
t107.5 -45t76 -83t27.5 -123.5v-279zM328 524v-239q0 -97 51 -97t51 97v239q0 97 -51 97t-51 -97z" />
    <glyph glyph-name="seven" unicode="7" 
d="M18 1241v217h732v-217l-359 -1241h-311l375 1241h-437z" />
    <glyph glyph-name="eight" unicode="8" 
d="M430 981v193q0 96 -51 96t-51 -96v-193q0 -96 51 -96t51 96zM39 1028v193q0 71 27.5 123.5t76 83t107.5 45t129 14.5t129 -14.5t107.5 -45t76 -83t27.5 -123.5v-193q0 -109 -45 -176t-150 -86v-4q45 -1 80 -16.5t56 -39.5t35 -57.5t19 -66.5t5 -70v-274
q0 -57 -18.5 -102.5t-50 -76t-75 -50.5t-92.5 -29t-104 -9t-104 9t-92.5 29t-75 50.5t-50 76t-18.5 102.5v274q0 63 17.5 117t61.5 93.5t109 39.5v4q-103 19 -145.5 85.5t-42.5 176.5zM328 547v-262q0 -97 51 -97t51 97v262q0 96 -51 96t-51 -96z" />
    <glyph glyph-name="nine" unicode="9" 
d="M39 516h289v-231q0 -97 51 -97t51 97v356q-68 -57 -158 -57q-127 0 -180 72t-53 200v365q0 71 27.5 123.5t76 83t107.5 45t129 14.5t129 -14.5t107.5 -45t76 -83t27.5 -123.5v-983q0 -57 -18.5 -102.5t-50 -76t-75 -50.5t-92.5 -29t-104 -9t-104 9t-92.5 29t-75 50.5
t-50 76t-18.5 102.5v278zM430 934v240q0 96 -51 96t-51 -96v-240q0 -96 51 -96t51 96z" />
    <glyph glyph-name="colon" unicode=":" horiz-adv-x="378" 
d="M319 0h-260v303h260v-303zM319 868h-260v303h260v-303z" />
    <glyph glyph-name="semicolon" unicode=";" horiz-adv-x="378" 
d="M18 -258l74 561h266l-174 -561h-166zM338 868h-260v303h260v-303z" />
    <glyph glyph-name="less" unicode="&#x3c;" horiz-adv-x="1138" 
d="M1018 328v-201l-895 377v164l895 376v-200l-621 -258z" />
    <glyph glyph-name="equal" unicode="=" horiz-adv-x="1138" 
d="M1071 942v-237h-1003v237h1003zM1071 467v-238h-1003v238h1003z" />
    <glyph glyph-name="greater" unicode="&#x3e;" horiz-adv-x="1138" 
d="M121 328l620 258l-620 258v200l895 -376v-164l-895 -377v201z" />
    <glyph glyph-name="question" unicode="?" horiz-adv-x="872" 
d="M389 932h-260v272q0 147 86.5 215t239.5 68q140 -8 214 -75t74 -210v-108q0 -111 -22.5 -172.5t-61.5 -110.5q-3 -4 -12.5 -15t-13 -15t-12 -14.5t-12 -17t-9.5 -17.5t-9 -20t-7.5 -22t-6 -25.5t-3 -28.5t-1.5 -34v-227h-260v311q0 46 14.5 87.5t28 61.5t43.5 60
q27 39 41.5 64t28.5 73t14 103v67q0 20 -1 31t-5 26.5t-14 23t-27 7.5t-27 -7.5t-14 -23t-5 -26.5t-1 -31v-270zM573 0h-260v303h260v-303z" />
    <glyph glyph-name="at" unicode="@" horiz-adv-x="1638" 
d="M791 516q93 0 149.5 62t56.5 151q0 74 -43 119t-116 45q-85 0 -142 -64t-57 -145q0 -73 40.5 -120.5t111.5 -47.5zM1057 995l18 99h193l-90 -484q-11 -49 -11 -67q0 -45 27 -45q72 0 130 79.5t58 229.5q0 238 -146.5 364.5t-387.5 126.5q-251 0 -401 -158t-150 -413
q0 -263 161.5 -415t424.5 -152q224 0 385 119h198q-108 -150 -260.5 -229t-339.5 -79q-161 0 -306.5 56.5t-252.5 155t-170 240.5t-63 304q0 160 62 301.5t166.5 242t248.5 158.5t303 58q107 0 211 -27.5t194 -81t158.5 -126.5t108 -171.5t39.5 -208.5q0 -96 -23 -179
t-60.5 -141t-87 -105.5t-99.5 -77t-100.5 -49t-89 -27.5t-65.5 -8q-44 0 -74.5 26t-31.5 72l-4 4q-39 -43 -92.5 -72.5t-102.5 -29.5q-133 0 -235.5 109t-102.5 255q0 121 50 226.5t145 172t215 66.5q164 0 250 -119z" />
    <glyph glyph-name="A" unicode="A" 
d="M319 606h95l-39 598h-8zM-8 0l217 1458h383l174 -1458h-301l-33 397h-137l-45 -397h-258z" />
    <glyph glyph-name="B" unicode="B" 
d="M430 944v213q0 51 -16 71.5t-52 20.5h-34v-397h34q36 0 52 20.5t16 71.5zM39 0v1458h340q70 0 128.5 -15t107.5 -48t76.5 -92t27.5 -140v-110q0 -57 -8.5 -97.5t-31 -77.5t-66.5 -62t-111 -38v-6q117 -11 167 -79.5t50 -237.5v-127q0 -181 -82.5 -254.5t-257.5 -73.5
h-340zM328 672v-463h34q37 0 52.5 14.5t15.5 55.5v323q0 41 -15.5 55.5t-52.5 14.5h-34z" />
    <glyph glyph-name="C" unicode="C" 
d="M430 573h289v-335q0 -57 -18.5 -102.5t-50 -76t-75 -50.5t-92.5 -29t-104 -9t-104 9t-92.5 29t-75 50.5t-50 76t-18.5 102.5v983q0 71 27.5 123.5t76 83t107.5 45t129 14.5t129 -14.5t107.5 -45t76 -83t27.5 -123.5v-277h-289v230q0 96 -51 96t-51 -96v-889q0 -97 51 -97
t51 97v288z" />
    <glyph glyph-name="D" unicode="D" 
d="M39 0v1458h340q70 0 129 -14.5t107.5 -45t76 -83t27.5 -123.5v-926q0 -71 -27.5 -123.5t-76 -83t-107.5 -45t-129 -14.5h-340zM328 1249v-1040h51q51 0 51 96v848q0 96 -51 96h-51z" />
    <glyph glyph-name="E" unicode="E" horiz-adv-x="606" 
d="M588 0h-541v1458h541v-209h-252v-334h242v-208h-242v-498h252v-209z" />
    <glyph glyph-name="F" unicode="F" horiz-adv-x="606" 
d="M336 0h-289v1458h541v-209h-252v-334h242v-208h-242v-707z" />
    <glyph glyph-name="G" unicode="G" 
d="M580 0l-21 104h-4q-28 -62 -92 -97.5t-133 -35.5q-141 0 -216 72.5t-75 194.5v983q0 71 27.5 123.5t76 83t107.5 45t129 14.5t129 -14.5t107.5 -45t76 -83t27.5 -123.5v-277h-289v230q0 96 -51 96t-51 -96v-889q0 -97 51 -97t51 97v250h-72v208h361v-743h-139z" />
    <glyph glyph-name="H" unicode="H" 
d="M328 0h-289v1458h289v-528h102v528h289v-1458h-289v696h-102v-696z" />
    <glyph glyph-name="I" unicode="I" horiz-adv-x="417" 
d="M352 0h-289v1458h289v-1458z" />
    <glyph glyph-name="J" unicode="J" 
d="M39 573h289v-260q0 -125 51 -125t51 125v1145h289v-1167q0 -165 -84.5 -242.5t-255.5 -77.5q-172 0 -256 77.5t-84 242.5v282z" />
    <glyph glyph-name="K" unicode="K" 
d="M315 0h-288v1458h288v-645h4l146 645h285l-177 -604l179 -854h-287l-146 764h-4v-764z" />
    <glyph glyph-name="L" unicode="L" horiz-adv-x="606" 
d="M584 0h-545v1458h289v-1249h256v-209z" />
    <glyph glyph-name="M" unicode="M" horiz-adv-x="1214" 
d="M307 0h-260v1458h445l124 -979h5l143 979h403v-1458h-260v1069l-4 4l-176 -1073h-248l-168 1053h-4v-1053z" />
    <glyph glyph-name="N" unicode="N" horiz-adv-x="872" 
d="M272 0h-225v1458h402l147 -946h4v946h225v-1458h-344l-205 1147l-4 -4v-1143z" />
    <glyph glyph-name="O" unicode="O" 
d="M39 238v983q0 71 27.5 123.5t76 83t107.5 45t129 14.5t129 -14.5t107.5 -45t76 -83t27.5 -123.5v-983q0 -57 -18.5 -102.5t-50 -76t-75 -50.5t-92.5 -29t-104 -9t-104 9t-92.5 29t-75 50.5t-50 76t-18.5 102.5zM430 285v889q0 96 -51 96t-51 -96v-889q0 -97 51 -97t51 97
z" />
    <glyph glyph-name="P" unicode="P" 
d="M328 1249v-471h34q36 0 52 20.5t16 71.5v287q0 51 -16 71.5t-52 20.5h-34zM328 0h-289v1458h340q70 0 128.5 -15t107.5 -48t76.5 -92t27.5 -140v-299q0 -81 -27.5 -140t-76.5 -92t-107.5 -48t-128.5 -15h-51v-569z" />
    <glyph glyph-name="Q" unicode="Q" 
d="M719 -45v-217h-105q-187 0 -194 237q-12 -4 -41 -4q-55 0 -104 9t-92.5 29t-75 50.5t-50 76t-18.5 102.5v983q0 71 27.5 123.5t76 83t107.5 45t129 14.5t129 -14.5t107.5 -45t76 -83t27.5 -123.5v-983q0 -174 -166 -238q5 -45 88 -45h78zM430 285v889q0 96 -51 96
t-51 -96v-889q0 -97 51 -97t51 97z" />
    <glyph glyph-name="R" unicode="R" 
d="M328 0h-289v1458h340q70 0 128.5 -15t107.5 -48t76.5 -92t27.5 -140v-129q0 -44 -11 -82t-35 -73t-69.5 -56.5t-107.5 -25.5v-4q132 -7 177.5 -61.5t45.5 -184.5v-289q0 -40 2.5 -74t8.5 -62.5t10 -45t12 -42.5t10 -34h-293q-39 80 -39 188v332q0 35 -0.5 52.5t-6 42.5
t-15.5 37t-30 21t-50 9v-682zM328 1249v-399h34q36 0 52 20.5t16 71.5v215q0 51 -16 71.5t-52 20.5h-34z" />
    <glyph glyph-name="S" unicode="S" 
d="M715 938h-289v236q0 96 -51 96t-51 -96q2 -82 25 -144t58.5 -101.5t78 -74.5t84.5 -74.5t77 -90t56.5 -133t21.5 -191.5v-127q0 -57 -18.5 -102.5t-50 -76t-75 -50.5t-92.5 -29t-104 -9t-104 9t-92.5 29t-75 50.5t-50 76t-18.5 102.5v335h289v-288q0 -97 51 -97t51 97
q-1 95 -24 171t-58.5 125.5t-78 90.5t-84.5 77t-77 74t-57 92.5t-22 122.5v183q0 71 27.5 123.5t76 83t107.5 45t129 14.5t129 -14.5t107.5 -45t76 -83t27.5 -123.5v-283z" />
    <glyph glyph-name="T" unicode="T" horiz-adv-x="681" 
d="M485 1249v-1249h-288v1249h-195v209h678v-209h-195z" />
    <glyph glyph-name="U" unicode="U" 
d="M719 1458v-1220q0 -57 -18.5 -102.5t-50 -76t-75 -50.5t-92.5 -29t-104 -9t-104 9t-92.5 29t-75 50.5t-50 76t-18.5 102.5v1220h289v-1173q0 -97 51 -97t51 97v1173h289z" />
    <glyph glyph-name="V" unicode="V" 
d="M303 1458l80 -1192h4l107 1192h260l-195 -1458h-383l-172 1458h299z" />
    <glyph glyph-name="W" unicode="W" horiz-adv-x="1214" 
d="M455 1458h313l82 -956h4l74 956h289l-203 -1458h-332l-98 1018h-4l-111 -1018h-324l-147 1458h289l59 -956h4z" />
    <glyph glyph-name="X" unicode="X" 
d="M2 1458h301l92 -526h4l93 526h262l-160 -663l172 -795h-307l-94 623h-5l-100 -623h-270l174 754z" />
    <glyph glyph-name="Y" unicode="Y" 
d="M244 0v731l-240 727h303l92 -579h4l91 579h260l-222 -727v-731h-288z" />
    <glyph glyph-name="Z" unicode="Z" horiz-adv-x="606" 
d="M596 209v-209h-576v209l263 1040h-275v209h576v-209l-277 -1040h289z" />
    <glyph glyph-name="bracketleft" unicode="[" horiz-adv-x="606" 
d="M528 -195h-450v1682h440v-205h-194v-1272h204v-205z" />
    <glyph glyph-name="backslash" unicode="\" horiz-adv-x="569" 
d="M-111 1487h164l627 -1516h-162z" />
    <glyph glyph-name="bracketright" unicode="]" horiz-adv-x="606" 
d="M78 -195v205h205v1272h-195v205h440v-1682h-450z" />
    <glyph glyph-name="asciicircum" unicode="^" horiz-adv-x="1138" 
d="M342 711h-238l357 747h217l356 -747h-239l-226 508z" />
    <glyph glyph-name="underscore" unicode="_" horiz-adv-x="1024" 
d="M1024 -256h-1024v102h1024v-102z" />
    <glyph glyph-name="grave" unicode="`" horiz-adv-x="342" 
d="M188 1270l-280 276h198l195 -276h-113z" />
    <glyph glyph-name="a" unicode="a" horiz-adv-x="681" 
d="M295 453v-213q0 -62 45 -62q24 0 35.5 18.5t11.5 43.5v338l-47 -33q-30 -26 -37.5 -41t-7.5 -51zM35 764v158q0 126 86.5 195t218.5 69q131 0 219 -69t88 -195v-684q0 -36 3.5 -76.5t8.5 -87.5t7 -74h-265l-14 119h-4q-50 -133 -174 -133q-94 0 -134 53t-40 158v252
q0 60 19.5 103.5t50.5 68t68.5 43.5t75 36t68.5 38.5t50.5 58.5t19.5 88v47q0 25 -11.5 43t-35.5 18q-45 0 -45 -61v-168h-260z" />
    <glyph glyph-name="b" unicode="b" horiz-adv-x="681" 
d="M295 911v-651q0 -61 45 -61q24 0 35.5 18t11.5 43v651q0 25 -11.5 43.5t-35.5 18.5q-45 -3 -45 -62zM35 0v1458h260v-389h4q18 52 63 84.5t103 32.5q47 0 81 -14.5t53 -37t30.5 -58t14.5 -69t3 -77.5v-682q0 -45 -3 -78.5t-14.5 -70t-30.5 -59.5t-53 -38.5t-81 -15.5
q-58 0 -103.5 37.5t-62.5 99.5h-4v-123h-260z" />
    <glyph glyph-name="c" unicode="c" horiz-adv-x="681" 
d="M647 465v-215q0 -126 -88 -195t-219 -69q-132 0 -218.5 69t-86.5 195v672q0 126 86.5 195t218.5 69q131 0 219 -69t88 -195v-158h-260v168q0 25 -11.5 43t-35.5 18q-45 0 -45 -61v-692q0 -62 45 -62q24 0 35.5 18.5t11.5 43.5v225h260z" />
    <glyph glyph-name="d" unicode="d" horiz-adv-x="681" 
d="M387 260v651q0 25 -11.5 43.5t-35.5 18.5q-45 0 -45 -62v-651q0 -61 45 -61q24 0 35.5 18t11.5 43zM387 0v123h-4q-17 -62 -62.5 -99.5t-103.5 -37.5q-47 0 -81 15.5t-53 38.5t-30.5 59.5t-14.5 70t-3 78.5v682q0 44 3 77.5t14.5 69t30.5 58t53 37t81 14.5
q58 0 103 -32.5t63 -84.5h4v389h260v-1458h-260z" />
    <glyph glyph-name="e" unicode="e" horiz-adv-x="681" 
d="M35 250v672q0 126 86.5 195t218.5 69q131 0 219 -69t88 -195v-377h-352v-305q0 -62 45 -62q24 0 35.5 18.5t11.5 43.5v225h260v-215q0 -126 -88 -195t-219 -69q-132 0 -218.5 69t-86.5 195zM295 721h92v211q0 25 -11.5 43t-35.5 18q-45 0 -45 -61v-211z" />
    <glyph glyph-name="f" unicode="f" horiz-adv-x="417" 
d="M74 0v979h-62v192h62v76q0 121 51.5 166t179.5 45h109v-192h-19q-38 0 -49.5 -16t-11.5 -56v-23h80v-192h-80v-979h-260z" />
    <glyph glyph-name="g" unicode="g" horiz-adv-x="681" 
d="M387 395v516q0 25 -11.5 43.5t-35.5 18.5q-45 0 -45 -62v-516q0 -61 45 -61q24 0 35.5 18t11.5 43zM647 1171v-1169q0 -264 -305 -264q-307 0 -307 264v88h260v-110q0 -62 45 -62q24 0 35.5 18.5t11.5 43.5v262h-10q-24 -50 -72 -81.5t-106 -31.5q-85 0 -124.5 54
t-39.5 145v649q0 92 40 150.5t124 58.5q56 0 105 -35.5t73 -87.5h10v108h260z" />
    <glyph glyph-name="h" unicode="h" horiz-adv-x="681" 
d="M295 0h-260v1458h260v-389h10q7 51 60 84t110 33q35 0 62 -7.5t45 -19t30.5 -32t19 -39.5t10 -49t4.5 -52t1 -57v-930h-260v911q0 25 -11.5 43.5t-35.5 18.5q-45 0 -45 -62v-911z" />
    <glyph glyph-name="i" unicode="i" horiz-adv-x="342" 
d="M301 0h-260v1171h260v-1171zM301 1237h-260v221h260v-221z" />
    <glyph glyph-name="j" unicode="j" horiz-adv-x="342" 
d="M311 1171v-1243q0 -53 -14.5 -89t-35.5 -55.5t-59.5 -30t-72 -13t-88.5 -2.5h-98v186h45q40 0 51.5 17t11.5 61v1169h260zM311 1237h-260v221h260v-221z" />
    <glyph glyph-name="k" unicode="k" horiz-adv-x="681" 
d="M299 0h-260v1458h260v-813h4l105 526h270l-127 -503l123 -668h-266l-105 616h-4v-616z" />
    <glyph glyph-name="l" unicode="l" horiz-adv-x="342" 
d="M301 0h-260v1458h260v-1458z" />
    <glyph glyph-name="m" unicode="m" horiz-adv-x="1024" 
d="M289 1171v-104h4q24 45 41 67t50 37t83 15q71 0 108 -26t60 -95q39 68 72.5 94.5t105.5 26.5q58 0 96.5 -20.5t55.5 -56.5t22.5 -67.5t5.5 -72.5v-969h-260v911q0 25 -11.5 43.5t-35.5 18.5q-45 0 -45 -62v-911h-260v911q0 25 -11.5 43.5t-35.5 18.5q-45 0 -45 -62v-911
h-260v1171h260z" />
    <glyph glyph-name="n" unicode="n" horiz-adv-x="681" 
d="M295 1171v-102h4q11 51 65 84t111 33q35 0 62 -7.5t45 -19t30.5 -32t19 -39.5t10 -49t4.5 -52t1 -57v-930h-260v911q0 25 -11.5 43.5t-35.5 18.5q-45 0 -45 -62v-911h-260v1171h260z" />
    <glyph glyph-name="o" unicode="o" horiz-adv-x="681" 
d="M647 922v-672q0 -126 -88 -195t-219 -69q-132 0 -218.5 69t-86.5 195v672q0 126 86.5 195t218.5 69q131 0 219 -69t88 -195zM387 240v692q0 25 -11.5 43t-35.5 18q-45 0 -45 -61v-692q0 -62 45 -62q24 0 35.5 18.5t11.5 43.5z" />
    <glyph glyph-name="p" unicode="p" horiz-adv-x="681" 
d="M391 260v651q0 25 -11.5 43.5t-35.5 18.5q-45 0 -45 -62v-651q0 -61 45 -61q24 0 35.5 18t11.5 43zM299 1171v-122h4q12 61 56.5 99t103.5 38q58 0 97 -21.5t58 -61.5t26 -82t7 -97v-682q0 -55 -7 -96t-26 -80t-58 -59.5t-97 -20.5t-103 32.5t-57 83.5h-4v-364h-260v1433
h260z" />
    <glyph glyph-name="q" unicode="q" horiz-adv-x="681" 
d="M295 911v-651q0 -61 45 -61q24 0 35.5 18t11.5 43v651q0 25 -11.5 43.5t-35.5 18.5q-45 0 -45 -62zM647 1171v-1433h-260v364h-4q-17 -52 -62.5 -84t-103.5 -32q-47 0 -81 14.5t-53 37t-30.5 58t-14.5 69t-3 77.5v682q0 45 3 78.5t14.5 70t30.5 59.5t53 38.5t81 15.5
q58 0 103.5 -37.5t62.5 -99.5h4v122h260z" />
    <glyph glyph-name="r" unicode="r" horiz-adv-x="681" 
d="M295 1171v-100h4q62 115 186 115q92 0 127 -51t35 -154v-440h-260v370q0 25 -11.5 43.5t-35.5 18.5q-45 0 -45 -62v-911h-260v1171h260z" />
    <glyph glyph-name="s" unicode="s" horiz-adv-x="681" 
d="M393 764v168q0 61 -53 61q-51 0 -51 -61v-68q0 -41 20 -74t52 -56.5t71 -46.5t78 -52t71 -65.5t52 -94.5t20 -131v-94q0 -126 -89 -195t-224 -69q-129 0 -220 69.5t-91 194.5v194h260v-204q0 -62 51 -62q28 0 40.5 18t12.5 44v98q0 42 -20 76t-52 58.5t-71 47.5t-78 50.5
t-71 60t-52 82t-20 110.5v99q0 125 91 194.5t220 69.5q135 0 224 -69t89 -195v-158h-260z" />
    <glyph glyph-name="t" unicode="t" horiz-adv-x="417" 
d="M336 1384v-213h72v-192h-72v-707q0 -79 45 -79h31v-193h-117q-71 0 -113 11t-66 41t-32 72t-8 114v741h-70v192h70v213h260z" />
    <glyph glyph-name="u" unicode="u" horiz-adv-x="681" 
d="M387 0v131h-4q0 -58 -52.5 -101.5t-113.5 -43.5q-182 0 -182 209v976h260v-911q0 -61 45 -61q24 0 35.5 18t11.5 43v911h260v-1171h-260z" />
    <glyph glyph-name="v" unicode="v" horiz-adv-x="681" 
d="M10 1171h269l67 -895h4l82 895h238l-170 -1171h-318z" />
    <glyph glyph-name="w" unicode="w" horiz-adv-x="1099" 
d="M6 1171h266l68 -905h4l84 905h270l72 -909h4l76 909h246l-174 -1171h-295l-66 852h-4l-90 -852h-295z" />
    <glyph glyph-name="x" unicode="x" horiz-adv-x="681" 
d="M2 0l145 616l-133 555h273l69 -446h4l70 446h240l-129 -563l139 -608h-274l-74 473h-4l-84 -473h-242z" />
    <glyph glyph-name="y" unicode="y" horiz-adv-x="681" 
d="M430 1171h242l-185 -1183q-8 -55 -16.5 -89.5t-24 -65t-36.5 -47t-55.5 -28.5t-79.5 -16t-111 -4h-131v192h82q42 0 57.5 11t15.5 43q0 20 -2 34l-178 1153h260l72 -895h4z" />
    <glyph glyph-name="z" unicode="z" horiz-adv-x="530" 
d="M231 979h-206v192h487v-192l-227 -786h227v-193h-494v193z" />
    <glyph glyph-name="braceleft" unicode="{" horiz-adv-x="681" 
d="M604 1487v-158h-37q-39 0 -64.5 -10.5t-36.5 -29.5t-14 -35.5t-3 -39.5v-370q-1 -47 -24.5 -82t-61 -52.5t-71 -25t-65.5 -8.5v-6q23 -2 35.5 -3.5t39 -6.5t43 -12t38.5 -21t34.5 -32t22 -46t9.5 -62v-409q0 -23 3 -39.5t14 -35.5t36.5 -29.5t64.5 -10.5h37v-158h-129
q-35 0 -79 14.5t-88.5 42t-74.5 76.5t-30 109v432q0 23 -6 40t-13 26.5t-23 17t-24.5 10t-30 7t-28.5 6.5v174q8 2 28.5 6t30 6.5t25 10t22.5 17t13 26.5t6 40v379q0 60 30 109t74.5 76.5t88.5 42t79 14.5h129z" />
    <glyph glyph-name="bar" unicode="|" horiz-adv-x="454" 
d="M109 -512v2048h237v-2048h-237z" />
    <glyph glyph-name="braceright" unicode="}" horiz-adv-x="681" 
d="M604 745v-174q-8 -2 -28.5 -6t-30 -6.5t-25 -10t-22.5 -17t-13 -26.5t-6 -40v-432q0 -60 -30 -109t-74.5 -76.5t-88.5 -42t-79 -14.5h-129v158h37q39 0 64.5 10t36.5 29.5t14 35.5t3 39v410q0 27 6 50t14 39.5t22.5 30t26.5 22.5t32 16t31.5 11t33 7t29.5 3.5t27 2.5v7
q-32 1 -65.5 8.5t-71 24.5t-61 52t-24.5 82v371q0 23 -3 39.5t-14 35.5t-36.5 29.5t-64.5 10.5h-37v158h129q35 0 79 -14.5t88.5 -42t74.5 -76.5t30 -109v-379q0 -23 6 -40t13 -26.5t23 -17t24.5 -10t30 -7t28.5 -6.5z" />
    <glyph glyph-name="asciitilde" unicode="~" horiz-adv-x="1138" 
d="M969 791l73 -197q-23 -32 -38.5 -52t-41 -46.5t-49.5 -41t-57 -25.5t-70 -11q-38 0 -79.5 11.5t-63.5 22t-70 35.5q-45 23 -71.5 35t-71 23.5t-88.5 11.5q-105 0 -172 -147l-74 196q92 176 256 176q86 0 236 -69q6 -3 32 -14.5t33.5 -15t29 -12.5t31 -12t25 -8t27 -6.5
t22.5 -1.5q38 0 74 24.5t56 50.5t51 73z" />
    <glyph glyph-name="uni00A0" unicode="&#xa0;" horiz-adv-x="378" 
 />
    <glyph glyph-name="exclamdown" unicode="&#xa1;" horiz-adv-x="530" 
d="M395 -233h-260v1083h260v-1083zM395 922h-260v303h260v-303z" />
    <glyph glyph-name="cent" unicode="&#xa2;" 
d="M422 465h260v-215q0 -122 -83 -190.5t-208 -71.5l-18 -127h-148l21 145q-81 27 -128.5 89.5t-47.5 154.5v672q0 126 87 195t218 69q17 0 53 -4l35 108h149l-37 -160q107 -73 107 -208v-158h-260v168q0 25 -11.5 43t-35.5 18q-45 0 -45 -61v-692q0 -62 45 -62
q24 0 35.5 18.5t11.5 43.5v225z" />
    <glyph glyph-name="sterling" unicode="&#xa3;" 
d="M526 651h-147q0 -289 -143 -442q25 2 73 2t113.5 -9t91.5 -9q102 -7 203 32l24 -217q-86 -37 -209 -37q-37 0 -126 13q-108 10 -123 10q-135 0 -240 -23l-29 191q109 121 109 344q0 93 -12 145h-97v154h76q-23 72 -33 141q-16 91 -16 203v72q0 71 25.5 123.5t71 83
t103 45t126.5 14.5q70 0 129 -14.5t107.5 -45t76 -83t27.5 -123.5v-199h-275v152q0 96 -51 96q-55 0 -55 -96q0 -74 15 -186.5t34 -182.5h151v-154z" />
    <glyph glyph-name="currency" unicode="&#xa4;" 
d="M8 319l84 82q-65 75 -65 199q0 139 65 201l-84 82l90 90l82 -82q33 28 88.5 45.5t114.5 17.5q56 0 109 -17t81 -42l82 82l95 -96l-78 -80q29 -30 45 -84.5t16 -114.5q0 -131 -63 -203l80 -80l-86 -86l-82 82q-32 -32 -86 -50.5t-113 -18.5q-131 0 -205 67l-82 -82z
M383 797q-81 0 -132.5 -57t-51.5 -140t51.5 -140t132.5 -57q78 0 128 58.5t50 140.5q0 80 -50 137.5t-128 57.5z" />
    <glyph glyph-name="yen" unicode="&#xa5;" 
d="M4 1458h303l92 -579h4l91 579h260l-164 -454h158v-154h-183l-33 -88v-78h164v-154h-164v-530h-288v530h-164v154h164v78l-31 88h-184v154h155z" />
    <glyph glyph-name="brokenbar" unicode="&#xa6;" horiz-adv-x="454" 
d="M109 -358v716h237v-716h-237zM109 666v716h237v-716h-237z" />
    <glyph glyph-name="section" unicode="&#xa7;" horiz-adv-x="872" 
d="M338 858q-47 -23 -47 -84q0 -38 48 -85t116 -96.5t86 -68.5q14 8 26.5 41.5t12.5 52.5q0 38 -46 83t-112 92t-84 65zM778 1190h-239q-3 47 -27 74q-21 30 -72 30q-35 0 -55 -23.5t-20 -60.5q0 -30 25 -61.5t65.5 -62t89 -63.5t97 -72.5t89 -82.5t65.5 -100.5t25 -120.5
q0 -165 -139 -254q86 -72 86 -221q0 -139 -98 -219t-240 -80q-159 0 -251.5 85t-92.5 247h242q0 -139 98 -139q44 0 72 23t28 67q0 36 -26.5 72t-68.5 67.5t-92.5 65t-101.5 72t-93 81t-68.5 99.5t-26.5 120q0 162 139 275q-65 62 -65 196q0 127 100 205t232 78
q139 0 231 -79.5t92 -217.5z" />
    <glyph glyph-name="dieresis" unicode="&#xa8;" horiz-adv-x="342" 
d="M98 1294h-192v224h192v-224zM436 1294h-192v224h192v-224z" />
    <glyph glyph-name="copyright" unicode="&#xa9;" horiz-adv-x="1638" 
d="M819 -29q-123 0 -238.5 32t-214.5 96.5t-173.5 154.5t-117 212t-42.5 263t42.5 263t117 212t173.5 154.5t214.5 96.5t238.5 32q122 0 237.5 -32t215 -96.5t174.5 -154t117.5 -212t42.5 -263.5t-42.5 -263.5t-117.5 -212t-174.5 -154t-215 -96.5t-237.5 -32zM1356 729
q0 124 -43 231.5t-116 181t-171.5 115t-206.5 41.5q-111 0 -209 -41.5t-170.5 -115t-114.5 -180.5t-42 -232q0 -165 72 -296t194 -202t270 -71q108 0 206.5 42t171.5 115.5t116 180.5t43 231zM1020 618h192q-21 -151 -122.5 -234t-239.5 -83q-186 0 -302 124t-116 310
q0 193 112.5 316t301.5 123q141 0 238 -81t120 -231h-184q-11 65 -58.5 94t-115.5 29q-90 0 -139.5 -65.5t-49.5 -180.5q0 -108 54 -179t139 -71q74 0 120 31.5t50 97.5z" />
    <glyph glyph-name="ordfeminine" unicode="&#xaa;" horiz-adv-x="409" 
d="M158 1049v-129q0 -37 41 -37q43 0 43 37v202l-56 -18q-19 -15 -23.5 -23.5t-4.5 -31.5zM14 1235v94q0 76 50 117t122 41q85 0 142 -41t57 -117v-409q0 -29 5.5 -84.5t6.5 -67.5h-147l-8 80h-4q-14 -42 -48 -62q-30 -18 -77 -18q-56 0 -77.5 31.5t-21.5 95.5v149
q0 49 21 80.5t50.5 46t59.5 28.5t51 40t21 68v28q0 14 -7.5 25.5t-23.5 11.5q-28 0 -28 -37v-100h-144z" />
    <glyph glyph-name="guillemotleft" unicode="&#xab;" horiz-adv-x="681" 
d="M647 1096v-277l-178 -184l178 -184v-277l-289 324v274zM313 1096v-277l-178 -184l178 -184v-277l-288 324v274z" />
    <glyph glyph-name="logicalnot" unicode="&#xac;" horiz-adv-x="1138" 
d="M834 305v400h-766v237h1003v-637h-237z" />
    <glyph glyph-name="uni00AD" unicode="&#xad;" horiz-adv-x="530" 
d="M442 541h-354v188h354v-188z" />
    <glyph glyph-name="registered" unicode="&#xae;" horiz-adv-x="1638" 
d="M819 -29q-123 0 -238.5 32t-214.5 96.5t-173.5 154.5t-117 212t-42.5 263t42.5 263t117 212t173.5 154.5t214.5 96.5t238.5 32q122 0 237.5 -32t215 -96.5t174.5 -154t117.5 -212t42.5 -263.5t-42.5 -263.5t-117.5 -212t-174.5 -154t-215 -96.5t-237.5 -32zM1356 729
q0 124 -43 231.5t-116 181t-171.5 115t-206.5 41.5q-111 0 -209 -41.5t-170.5 -115t-114.5 -180.5t-42 -232q0 -165 72 -296t194 -202t270 -71q108 0 206.5 42t171.5 115.5t116 180.5t43 231zM698 662v-343h-188v824h307q172 0 259 -56.5t87 -195.5q0 -111 -59 -160.5
t-172 -54.5l209 -357h-189l-186 343h-68zM698 809h156q58 0 85.5 21t27.5 81q0 28 -14.5 46.5t-41 26t-47.5 9.5t-51 2h-115v-186z" />
    <glyph glyph-name="macron" unicode="&#xaf;" horiz-adv-x="342" 
d="M451 1337h-549v133h549v-133z" />
    <glyph glyph-name="degree" unicode="&#xb0;" horiz-adv-x="819" 
d="M410 1335q-76 0 -119 -46.5t-43 -123.5t43 -123.5t119 -46.5t118.5 46t42.5 124t-42.5 124t-118.5 46zM410 872q-123 0 -208 85t-85 208t85 208t208 85t207.5 -85t84.5 -208t-84.5 -208t-207.5 -85z" />
    <glyph glyph-name="plusminus" unicode="&#xb1;" horiz-adv-x="1138" 
d="M451 858v232h237v-232h383v-237h-383v-240h-237v240h-383v237h383zM68 82v237h1003v-237h-1003z" />
    <glyph glyph-name="twosuperior" unicode="&#xb2;" horiz-adv-x="491" 
d="M467 725v-131h-442v180q0 44 26.5 92.5t64 95t75 96.5t64 113t26.5 127q0 58 -35 58q-33 0 -33 -58v-141h-188v170q0 82 63 121t158 39q97 0 159 -39t62 -121v-37q0 -69 -26 -138.5t-63.5 -125.5t-75 -107.5t-63.5 -102t-26 -91.5h254z" />
    <glyph glyph-name="threesuperior" unicode="&#xb3;" horiz-adv-x="491" 
d="M160 983v129h37q51 0 67.5 13t16.5 53v120q0 58 -35 58q-33 0 -33 -58v-141h-188v170q0 82 63 121t158 39q97 0 159 -39t62 -121v-100q0 -75 -27.5 -118.5t-101.5 -53.5v-6q74 -10 101.5 -53.5t27.5 -118.5v-140q0 -82 -62 -120.5t-159 -38.5q-96 0 -158.5 38.5
t-62.5 120.5v201h188v-174q0 -57 33 -57q35 0 35 57v154q0 40 -16.5 52.5t-67.5 12.5h-37z" />
    <glyph glyph-name="acute" unicode="&#xb4;" horiz-adv-x="342" 
d="M197 1270h-113l195 276h198z" />
    <glyph glyph-name="mu" unicode="&#xb5;" horiz-adv-x="681" 
d="M35 -262v1433h260v-911q0 -61 45 -61q24 0 35.5 18t11.5 43v911h260v-1171h-256v131h-6q-3 -36 -29 -68q-21 -34 -61 -55v-270h-260z" />
    <glyph glyph-name="paragraph" unicode="&#xb6;" horiz-adv-x="1269" 
d="M528 -367v1110q-165 0 -269.5 95t-104.5 256q0 85 25 150.5t64.5 105t96 65t113 34.5t122.5 9h662v-188h-121v-1637h-246v1637h-96v-1637h-246z" />
    <glyph glyph-name="periodcentered" unicode="&#xb7;" horiz-adv-x="378" 
d="M197 752q67 0 115 -49.5t48 -116.5q0 -72 -50 -124t-122 -52q-74 0 -123 50t-49 124q0 70 55 119t126 49z" />
    <glyph glyph-name="cedilla" unicode="&#xb8;" horiz-adv-x="342" 
d="M-78 -451v109q95 -25 168 -25h25t28 1t32.5 3t31 5.5t30.5 9.5t23 14t17.5 20t5.5 27q0 68 -140 68h-65v219h106v-119q112 -10 137 -16q80 -19 102 -88q9 -31 9 -74q0 -121 -174 -170q-55 -14 -147 -14q-128 0 -189 30z" />
    <glyph glyph-name="onesuperior" unicode="&#xb9;" horiz-adv-x="491" 
d="M100 1266v104q61 2 95 24.5t49 73.5h151v-874h-190v672h-105z" />
    <glyph glyph-name="ordmasculine" unicode="&#xba;" horiz-adv-x="409" 
d="M367 1329v-403q0 -73 -53 -115.5t-121 -42.5q-67 0 -120 42.5t-53 115.5v403q0 74 52.5 116t120.5 42t121 -42t53 -116zM223 920v415q0 37 -30 37q-29 0 -29 -37v-415q0 -37 29 -37q30 0 30 37z" />
    <glyph glyph-name="guillemotright" unicode="&#xbb;" horiz-adv-x="681" 
d="M369 819v277l288 -324v-274l-288 -324v277l178 184zM35 819v277l289 -324v-274l-289 -324v277l178 184z" />
    <glyph glyph-name="onequarter" unicode="&#xbc;" horiz-adv-x="1136" 
d="M881 219h-256v123l176 532h260v-532h59v-123h-59v-219h-180v219zM877 758l-105 -416h109v416h-4zM166 -29l657 1516h115l-651 -1516h-121zM41 1266v104q60 2 94 24.5t49 73.5h152v-874h-191v672h-104z" />
    <glyph glyph-name="onehalf" unicode="&#xbd;" horiz-adv-x="1136" 
d="M1120 131v-131h-442v180q0 44 26.5 92.5t64 95.5t75 96.5t64 113t26.5 127.5q0 57 -35 57q-33 0 -33 -57v-142h-188v170q0 82 63 121t158 39q97 0 159 -39t62 -121v-37q0 -69 -26 -138.5t-63.5 -125.5t-75 -107.5t-63.5 -102t-26 -91.5h254zM152 -29l657 1516h115
l-652 -1516h-120zM41 1266v104q60 2 94 24.5t49 73.5h152v-874h-191v672h-104z" />
    <glyph glyph-name="threequarters" unicode="&#xbe;" horiz-adv-x="1136" 
d="M203 -29l657 1516h115l-651 -1516h-121zM150 983v129h36q51 0 67.5 13t16.5 53v120q0 58 -34 58q-33 0 -33 -58v-141h-189v170q0 82 63 121t159 39q97 0 159 -39t62 -121v-100q0 -75 -27.5 -118.5t-101.5 -53.5v-6q74 -10 101.5 -53.5t27.5 -118.5v-140q0 -82 -62 -120.5
t-159 -38.5q-96 0 -159 38.5t-63 120.5v201h189v-174q0 -57 33 -57q34 0 34 57v154q0 40 -16.5 52.5t-67.5 12.5h-36zM625 219v123l174 532h260v-532h61v-123h-61v-219h-180v219h-254zM772 342h107v416h-5z" />
    <glyph glyph-name="questiondown" unicode="&#xbf;" horiz-adv-x="872" 
d="M483 293h260v-273q0 -282 -325 -282q-141 8 -215 75t-74 210v108q0 110 20.5 170.5t59.5 106.5q2 2 13.5 15.5t13.5 16t12 15.5t12.5 18t10 17.5t10 21t7.5 22.5t6.5 26.5t3 28.5t1.5 34v227h260v-311q0 -22 -2 -40.5t-8.5 -37.5t-9.5 -29.5t-15.5 -30t-15 -24
t-18.5 -26.5t-17 -23q-27 -38 -41.5 -61.5t-28.5 -72t-14 -104.5v-67q0 -20 1 -31t5 -27t14 -23.5t27 -7.5t27 7.5t14 23.5t5 27t1 31v270zM299 922v303h260v-303h-260z" />
    <glyph glyph-name="Agrave" unicode="&#xc0;" 
d="M319 606h95l-39 598h-8zM-8 0l217 1458h383l174 -1458h-301l-33 397h-137l-45 -397h-258zM397 1544l-280 277h198l195 -277h-113z" />
    <glyph glyph-name="Aacute" unicode="&#xc1;" 
d="M319 606h95l-39 598h-8zM-8 0l217 1458h383l174 -1458h-301l-33 397h-137l-45 -397h-258zM406 1544h-113l194 277h199z" />
    <glyph glyph-name="Acircumflex" unicode="&#xc2;" 
d="M319 606h95l-39 598h-8zM-8 0l217 1458h383l174 -1458h-301l-33 397h-137l-45 -397h-258zM379 1716l-172 -172h-121l201 277h188l197 -277h-119z" />
    <glyph glyph-name="Atilde" unicode="&#xc3;" 
d="M319 606h95l-39 598h-8zM-8 0l217 1458h383l174 -1458h-301l-33 397h-137l-45 -397h-258zM578 1786h81q0 -84 -57 -139.5t-141 -55.5q-23 0 -60 10t-67.5 19t-62 12.5t-54.5 -12t-33 -51.5h-82q0 71 51.5 131.5t122.5 60.5q26 0 90 -16t85 -19q110 -19 127 60z" />
    <glyph glyph-name="Adieresis" unicode="&#xc4;" 
d="M319 606h95l-39 598h-8zM-8 0l217 1458h383l174 -1458h-301l-33 397h-137l-45 -397h-258zM307 1569h-192v223h192v-223zM645 1569h-192v223h192v-223z" />
    <glyph glyph-name="Aring" unicode="&#xc5;" 
d="M319 606h95l-39 598h-8zM-8 0l217 1458h383l174 -1458h-301l-33 397h-137l-45 -397h-258zM190 1767q0 73 53.5 132t127.5 59q81 0 139.5 -59t58.5 -132q0 -77 -57.5 -136.5t-136.5 -59.5q-78 0 -131.5 59t-53.5 137zM285 1765q0 -45 22.5 -72.5t67.5 -27.5
q49 0 74.5 27.5t25.5 72.5q0 40 -30.5 69.5t-73.5 29.5q-40 0 -63 -28.5t-23 -70.5z" />
    <glyph glyph-name="AE" unicode="&#xc6;" horiz-adv-x="1024" 
d="M-4 0l303 1458h707v-209h-238v-334h227v-208h-227v-498h238v-209h-527v397h-149l-64 -397h-270zM367 606h112v656h-26z" />
    <glyph glyph-name="Ccedilla" unicode="&#xc7;" 
d="M430 573h289v-335q0 -68 -26 -120t-72 -83t-103 -46.5t-125 -17.5v-90q112 -10 137 -16q80 -19 102 -88q9 -32 9 -74q0 -121 -174 -170q-55 -14 -148 -14q-127 0 -188 30v109q95 -25 168 -25h25t28 1t32.5 3t31 5.5t30.5 9.5t23 14t17.5 20t5.5 27q0 68 -140 68h-65v199
q-113 17 -176 77q-72 69 -72 181v983q0 71 27.5 123.5t76 83t107.5 45t129 14.5t129 -14.5t107.5 -45t76 -83t27.5 -123.5v-277h-289v230q0 96 -51 96t-51 -96v-889q0 -97 51 -97t51 97v288z" />
    <glyph glyph-name="Egrave" unicode="&#xc8;" horiz-adv-x="606" 
d="M588 0h-541v1458h541v-209h-252v-334h242v-208h-242v-498h252v-209zM322 1544l-281 277h199l194 -277h-112z" />
    <glyph glyph-name="Eacute" unicode="&#xc9;" horiz-adv-x="606" 
d="M588 0h-541v1458h541v-209h-252v-334h242v-208h-242v-498h252v-209zM330 1544h-113l195 277h198z" />
    <glyph glyph-name="Ecircumflex" unicode="&#xca;" horiz-adv-x="606" 
d="M588 0h-541v1458h541v-209h-252v-334h242v-208h-242v-498h252v-209zM303 1716l-172 -172h-121l201 277h188l197 -277h-119z" />
    <glyph glyph-name="Edieresis" unicode="&#xcb;" horiz-adv-x="606" 
d="M588 0h-541v1458h541v-209h-252v-334h242v-208h-242v-498h252v-209zM231 1569h-192v223h192v-223zM569 1569h-192v223h192v-223z" />
    <glyph glyph-name="Igrave" unicode="&#xcc;" horiz-adv-x="417" 
d="M352 0h-289v1458h289v-1458zM227 1544l-280 277h198l195 -277h-113z" />
    <glyph glyph-name="Iacute" unicode="&#xcd;" horiz-adv-x="417" 
d="M352 0h-289v1458h289v-1458zM236 1544h-113l194 277h199z" />
    <glyph glyph-name="Icircumflex" unicode="&#xce;" horiz-adv-x="417" 
d="M352 0h-289v1458h289v-1458zM209 1716l-172 -172h-121l201 277h188l197 -277h-119z" />
    <glyph glyph-name="Idieresis" unicode="&#xcf;" horiz-adv-x="417" 
d="M352 0h-289v1458h289v-1458zM137 1569h-192v223h192v-223zM475 1569h-192v223h192v-223z" />
    <glyph glyph-name="Eth" unicode="&#xd0;" 
d="M39 0v707h-59v208h59v543h340q70 0 129 -14.5t107.5 -45t76 -83t27.5 -123.5v-926q0 -71 -27.5 -123.5t-76 -83t-107.5 -45t-129 -14.5h-340zM328 915h59v-208h-59v-498h51q51 0 51 96v848q0 96 -51 96h-51v-334z" />
    <glyph glyph-name="Ntilde" unicode="&#xd1;" horiz-adv-x="872" 
d="M272 0h-225v1458h402l147 -946h4v946h225v-1458h-344l-205 1147l-4 -4v-1143zM635 1786h82q0 -84 -57.5 -139.5t-141.5 -55.5q-23 0 -59.5 10t-67.5 19t-62 12.5t-54 -12t-33 -51.5h-82q0 71 51.5 131.5t122.5 60.5q26 0 89 -15.5t85 -19.5q110 -19 127 60z" />
    <glyph glyph-name="Ograve" unicode="&#xd2;" 
d="M39 238v983q0 71 27.5 123.5t76 83t107.5 45t129 14.5t129 -14.5t107.5 -45t76 -83t27.5 -123.5v-983q0 -57 -18.5 -102.5t-50 -76t-75 -50.5t-92.5 -29t-104 -9t-104 9t-92.5 29t-75 50.5t-50 76t-18.5 102.5zM430 285v889q0 96 -51 96t-51 -96v-889q0 -97 51 -97t51 97
zM397 1544l-280 277h198l195 -277h-113z" />
    <glyph glyph-name="Oacute" unicode="&#xd3;" 
d="M39 238v983q0 71 27.5 123.5t76 83t107.5 45t129 14.5t129 -14.5t107.5 -45t76 -83t27.5 -123.5v-983q0 -57 -18.5 -102.5t-50 -76t-75 -50.5t-92.5 -29t-104 -9t-104 9t-92.5 29t-75 50.5t-50 76t-18.5 102.5zM430 285v889q0 96 -51 96t-51 -96v-889q0 -97 51 -97t51 97
zM406 1544h-113l194 277h199z" />
    <glyph glyph-name="Ocircumflex" unicode="&#xd4;" 
d="M39 238v983q0 71 27.5 123.5t76 83t107.5 45t129 14.5t129 -14.5t107.5 -45t76 -83t27.5 -123.5v-983q0 -57 -18.5 -102.5t-50 -76t-75 -50.5t-92.5 -29t-104 -9t-104 9t-92.5 29t-75 50.5t-50 76t-18.5 102.5zM430 285v889q0 96 -51 96t-51 -96v-889q0 -97 51 -97t51 97
zM379 1716l-172 -172h-121l201 277h188l197 -277h-119z" />
    <glyph glyph-name="Otilde" unicode="&#xd5;" 
d="M39 238v983q0 71 27.5 123.5t76 83t107.5 45t129 14.5t129 -14.5t107.5 -45t76 -83t27.5 -123.5v-983q0 -57 -18.5 -102.5t-50 -76t-75 -50.5t-92.5 -29t-104 -9t-104 9t-92.5 29t-75 50.5t-50 76t-18.5 102.5zM430 285v889q0 96 -51 96t-51 -96v-889q0 -97 51 -97t51 97
zM578 1786h81q0 -84 -57 -139.5t-141 -55.5q-23 0 -60 10t-67.5 19t-62 12.5t-54.5 -12t-33 -51.5h-82q0 71 51.5 131.5t122.5 60.5q26 0 90 -16t85 -19q110 -19 127 60z" />
    <glyph glyph-name="Odieresis" unicode="&#xd6;" 
d="M39 238v983q0 71 27.5 123.5t76 83t107.5 45t129 14.5t129 -14.5t107.5 -45t76 -83t27.5 -123.5v-983q0 -57 -18.5 -102.5t-50 -76t-75 -50.5t-92.5 -29t-104 -9t-104 9t-92.5 29t-75 50.5t-50 76t-18.5 102.5zM430 285v889q0 96 -51 96t-51 -96v-889q0 -97 51 -97t51 97
zM307 1569h-192v223h192v-223zM645 1569h-192v223h192v-223z" />
    <glyph glyph-name="multiply" unicode="&#xd7;" horiz-adv-x="1138" 
d="M569 440l-360 -358l-141 143l356 361l-356 358l141 146l360 -361l361 361l141 -146l-358 -358l358 -361l-141 -143z" />
    <glyph glyph-name="Oslash" unicode="&#xd8;" 
d="M426 637l-98 -295v-57q0 -97 51 -97t51 97v352h-4zM332 780l98 295v99q0 96 -51 96t-51 -96v-394h4zM166 -127h-154l74 211q-47 63 -47 154v983q0 71 27.5 123.5t76 83t107.5 45t129 14.5q109 0 182 -33l25 72h151l-57 -166q39 -58 39 -139v-983q0 -57 -18.5 -102.5
t-50 -76t-75 -50.5t-92.5 -29t-104 -9q-96 0 -170 29z" />
    <glyph glyph-name="Ugrave" unicode="&#xd9;" 
d="M719 1458v-1220q0 -57 -18.5 -102.5t-50 -76t-75 -50.5t-92.5 -29t-104 -9t-104 9t-92.5 29t-75 50.5t-50 76t-18.5 102.5v1220h289v-1173q0 -97 51 -97t51 97v1173h289zM397 1544l-280 277h198l195 -277h-113z" />
    <glyph glyph-name="Uacute" unicode="&#xda;" 
d="M719 1458v-1220q0 -57 -18.5 -102.5t-50 -76t-75 -50.5t-92.5 -29t-104 -9t-104 9t-92.5 29t-75 50.5t-50 76t-18.5 102.5v1220h289v-1173q0 -97 51 -97t51 97v1173h289zM406 1544h-113l194 277h199z" />
    <glyph glyph-name="Ucircumflex" unicode="&#xdb;" 
d="M719 1458v-1220q0 -57 -18.5 -102.5t-50 -76t-75 -50.5t-92.5 -29t-104 -9t-104 9t-92.5 29t-75 50.5t-50 76t-18.5 102.5v1220h289v-1173q0 -97 51 -97t51 97v1173h289zM379 1716l-172 -172h-121l201 277h188l197 -277h-119z" />
    <glyph glyph-name="Udieresis" unicode="&#xdc;" 
d="M719 1458v-1220q0 -57 -18.5 -102.5t-50 -76t-75 -50.5t-92.5 -29t-104 -9t-104 9t-92.5 29t-75 50.5t-50 76t-18.5 102.5v1220h289v-1173q0 -97 51 -97t51 97v1173h289zM307 1569h-192v223h192v-223zM645 1569h-192v223h192v-223z" />
    <glyph glyph-name="Yacute" unicode="&#xdd;" 
d="M244 0v731l-240 727h303l92 -579h4l91 579h260l-222 -727v-731h-288zM406 1544h-113l194 277h199z" />
    <glyph glyph-name="Thorn" unicode="&#xde;" 
d="M328 373v-373h-289v1458h289v-196h51q70 0 128.5 -15t107.5 -48t76.5 -92t27.5 -140v-299q0 -81 -27.5 -140t-76.5 -92t-107.5 -48t-128.5 -15h-51zM328 1053v-471h34q36 0 52 20.5t16 71.5v287q0 51 -16 71.5t-52 20.5h-34z" />
    <glyph glyph-name="germandbls" unicode="&#xdf;" horiz-adv-x="681" 
d="M35 0v1188q0 147 78.5 223t216.5 76q152 0 234.5 -84.5t82.5 -214.5v-80q0 -41 -7 -80t-23 -77.5t-46 -66.5t-71 -38q60 -37 81 -58q66 -70 66 -245v-211q0 -56 -4.5 -101t-19 -93t-38.5 -80t-66 -52.5t-99 -19.5q-57 0 -90 6v182q57 0 57 84v393q0 12 -0.5 21.5
t-1.5 16.5t-3.5 13t-3.5 10t-5 7.5t-6 5.5t-8 4.5t-8 3t-10 3t-11 3.5v183q14 0 24.5 4t16.5 14t10 18t5 24.5t1.5 26t0 29.5t-0.5 27v158v10v11t-0.5 10t-2 10.5t-4 9.5t-6 8.5t-9 5.5t-13 4.5t-16.5 1.5q-41 0 -41 -71v-1223h-260z" />
    <glyph glyph-name="agrave" unicode="&#xe0;" horiz-adv-x="681" 
d="M295 453v-213q0 -62 45 -62q24 0 35.5 18.5t11.5 43.5v338l-47 -33q-30 -26 -37.5 -41t-7.5 -51zM35 764v158q0 126 86.5 195t218.5 69q131 0 219 -69t88 -195v-684q0 -36 3.5 -76.5t8.5 -87.5t7 -74h-265l-14 119h-4q-50 -133 -174 -133q-94 0 -134 53t-40 158v252
q0 60 19.5 103.5t50.5 68t68.5 43.5t75 36t68.5 38.5t50.5 58.5t19.5 88v47q0 25 -11.5 43t-35.5 18q-45 0 -45 -61v-168h-260zM358 1270l-280 276h198l195 -276h-113z" />
    <glyph glyph-name="aacute" unicode="&#xe1;" horiz-adv-x="681" 
d="M295 453v-213q0 -62 45 -62q24 0 35.5 18.5t11.5 43.5v338l-47 -33q-30 -26 -37.5 -41t-7.5 -51zM35 764v158q0 126 86.5 195t218.5 69q131 0 219 -69t88 -195v-684q0 -36 3.5 -76.5t8.5 -87.5t7 -74h-265l-14 119h-4q-50 -133 -174 -133q-94 0 -134 53t-40 158v252
q0 60 19.5 103.5t50.5 68t68.5 43.5t75 36t68.5 38.5t50.5 58.5t19.5 88v47q0 25 -11.5 43t-35.5 18q-45 0 -45 -61v-168h-260zM367 1270h-113l195 276h198z" />
    <glyph glyph-name="acircumflex" unicode="&#xe2;" horiz-adv-x="681" 
d="M295 453v-213q0 -62 45 -62q24 0 35.5 18.5t11.5 43.5v338l-47 -33q-30 -26 -37.5 -41t-7.5 -51zM35 764v158q0 126 86.5 195t218.5 69q131 0 219 -69t88 -195v-684q0 -36 3.5 -76.5t8.5 -87.5t7 -74h-265l-14 119h-4q-50 -133 -174 -133q-94 0 -134 53t-40 158v252
q0 60 19.5 103.5t50.5 68t68.5 43.5t75 36t68.5 38.5t50.5 58.5t19.5 88v47q0 25 -11.5 43t-35.5 18q-45 0 -45 -61v-168h-260zM340 1442l-172 -172h-121l201 276h188l197 -276h-119z" />
    <glyph glyph-name="atilde" unicode="&#xe3;" horiz-adv-x="681" 
d="M295 453v-213q0 -62 45 -62q24 0 35.5 18.5t11.5 43.5v338l-47 -33q-30 -26 -37.5 -41t-7.5 -51zM35 764v158q0 126 86.5 195t218.5 69q131 0 219 -69t88 -195v-684q0 -36 3.5 -76.5t8.5 -87.5t7 -74h-265l-14 119h-4q-50 -133 -174 -133q-94 0 -134 53t-40 158v252
q0 60 19.5 103.5t50.5 68t68.5 43.5t75 36t68.5 38.5t50.5 58.5t19.5 88v47q0 25 -11.5 43t-35.5 18q-45 0 -45 -61v-168h-260zM539 1511h82q0 -84 -57.5 -139t-141.5 -55q-23 0 -60 10t-67.5 19t-62 12t-54.5 -12.5t-33 -51.5h-82q0 71 52 132t123 61q26 0 89 -15.5
t85 -19.5q110 -19 127 59z" />
    <glyph glyph-name="adieresis" unicode="&#xe4;" horiz-adv-x="681" 
d="M295 453v-213q0 -62 45 -62q24 0 35.5 18.5t11.5 43.5v338l-47 -33q-30 -26 -37.5 -41t-7.5 -51zM35 764v158q0 126 86.5 195t218.5 69q131 0 219 -69t88 -195v-684q0 -36 3.5 -76.5t8.5 -87.5t7 -74h-265l-14 119h-4q-50 -133 -174 -133q-94 0 -134 53t-40 158v252
q0 60 19.5 103.5t50.5 68t68.5 43.5t75 36t68.5 38.5t50.5 58.5t19.5 88v47q0 25 -11.5 43t-35.5 18q-45 0 -45 -61v-168h-260zM268 1294h-192v224h192v-224zM606 1294h-192v224h192v-224z" />
    <glyph glyph-name="aring" unicode="&#xe5;" horiz-adv-x="681" 
d="M295 453v-213q0 -62 45 -62q24 0 35.5 18.5t11.5 43.5v338l-47 -33q-30 -26 -37.5 -41t-7.5 -51zM35 764v158q0 126 86.5 195t218.5 69q131 0 219 -69t88 -195v-684q0 -36 3.5 -76.5t8.5 -87.5t7 -74h-265l-14 119h-4q-50 -133 -174 -133q-94 0 -134 53t-40 158v252
q0 60 19.5 103.5t50.5 68t68.5 43.5t75 36t68.5 38.5t50.5 58.5t19.5 88v47q0 25 -11.5 43t-35.5 18q-45 0 -45 -61v-168h-260zM152 1493q0 73 53 131.5t127 58.5q81 0 139.5 -58.5t58.5 -131.5q0 -77 -57.5 -137t-136.5 -60q-78 0 -131 59t-53 138zM246 1491
q0 -45 22.5 -72.5t67.5 -27.5q49 0 74.5 27.5t25.5 72.5q0 40 -30.5 69t-73.5 29q-40 0 -63 -28t-23 -70z" />
    <glyph glyph-name="ae" unicode="&#xe6;" horiz-adv-x="1024" 
d="M641 721h92v211q0 25 -11.5 43t-35.5 18q-45 0 -45 -61v-211zM289 932v-168h-254v158q0 126 86.5 195t218.5 69q74 0 99.5 -3.5t92.5 -25.5q34 16 64.5 22.5t93.5 6.5q151 0 227 -64t76 -213v-364h-352v-305q0 -62 45 -62q24 0 35.5 18.5t11.5 43.5v225h260v-203
q0 -148 -77.5 -212t-229.5 -64q-130 0 -192 43q-58 -43 -158 -43q-307 0 -307 211v252q0 60 19.5 103.5t50 68t68 43.5t75 36t68.5 38.5t51 58.5t20 88v47q0 25 -11.5 43t-35.5 18q-45 0 -45 -61zM289 453v-213q0 -62 45 -62q24 0 35.5 18.5t11.5 43.5v338l-47 -33
q-30 -26 -37.5 -41t-7.5 -51z" />
    <glyph glyph-name="ccedilla" unicode="&#xe7;" horiz-adv-x="681" 
d="M387 465h260v-215q0 -123 -84.5 -192.5t-208.5 -71.5v-105q112 -10 137 -16q80 -19 102 -88q9 -32 9 -74q0 -121 -174 -170q-55 -14 -147 -14q-128 0 -189 30v109q95 -25 168 -25h25t28 1t32.5 3t31 5.5t30.5 9.5t23 14t17.5 20t5.5 27q0 68 -140 68h-65v213
q-94 22 -152 86q-61 67 -61 170v672q0 126 86.5 195t218.5 69q131 0 219 -69t88 -195v-158h-260v168q0 25 -11.5 43t-35.5 18q-45 0 -45 -61v-692q0 -62 45 -62q24 0 35.5 18.5t11.5 43.5v225z" />
    <glyph glyph-name="egrave" unicode="&#xe8;" horiz-adv-x="681" 
d="M35 250v672q0 126 86.5 195t218.5 69q131 0 219 -69t88 -195v-377h-352v-305q0 -62 45 -62q24 0 35.5 18.5t11.5 43.5v225h260v-215q0 -126 -88 -195t-219 -69q-132 0 -218.5 69t-86.5 195zM295 721h92v211q0 25 -11.5 43t-35.5 18q-45 0 -45 -61v-211zM358 1270
l-280 276h198l195 -276h-113z" />
    <glyph glyph-name="eacute" unicode="&#xe9;" horiz-adv-x="681" 
d="M35 250v672q0 126 86.5 195t218.5 69q131 0 219 -69t88 -195v-377h-352v-305q0 -62 45 -62q24 0 35.5 18.5t11.5 43.5v225h260v-215q0 -126 -88 -195t-219 -69q-132 0 -218.5 69t-86.5 195zM295 721h92v211q0 25 -11.5 43t-35.5 18q-45 0 -45 -61v-211zM367 1270h-113
l195 276h198z" />
    <glyph glyph-name="ecircumflex" unicode="&#xea;" horiz-adv-x="681" 
d="M35 250v672q0 126 86.5 195t218.5 69q131 0 219 -69t88 -195v-377h-352v-305q0 -62 45 -62q24 0 35.5 18.5t11.5 43.5v225h260v-215q0 -126 -88 -195t-219 -69q-132 0 -218.5 69t-86.5 195zM295 721h92v211q0 25 -11.5 43t-35.5 18q-45 0 -45 -61v-211zM340 1442
l-172 -172h-121l201 276h188l197 -276h-119z" />
    <glyph glyph-name="edieresis" unicode="&#xeb;" horiz-adv-x="681" 
d="M35 250v672q0 126 86.5 195t218.5 69q131 0 219 -69t88 -195v-377h-352v-305q0 -62 45 -62q24 0 35.5 18.5t11.5 43.5v225h260v-215q0 -126 -88 -195t-219 -69q-132 0 -218.5 69t-86.5 195zM295 721h92v211q0 25 -11.5 43t-35.5 18q-45 0 -45 -61v-211zM268 1294h-192
v224h192v-224zM606 1294h-192v224h192v-224z" />
    <glyph glyph-name="igrave" unicode="&#xec;" horiz-adv-x="342" 
d="M301 0h-260v1171h260v-1171zM188 1270l-280 276h198l195 -276h-113z" />
    <glyph glyph-name="iacute" unicode="&#xed;" horiz-adv-x="342" 
d="M301 0h-260v1171h260v-1171zM197 1270h-113l195 276h198z" />
    <glyph glyph-name="icircumflex" unicode="&#xee;" horiz-adv-x="342" 
d="M301 0h-260v1171h260v-1171zM170 1442l-172 -172h-121l201 276h188l197 -276h-119z" />
    <glyph glyph-name="idieresis" unicode="&#xef;" horiz-adv-x="342" 
d="M301 0h-260v1171h260v-1171zM98 1294h-192v224h192v-224zM436 1294h-192v224h192v-224z" />
    <glyph glyph-name="eth" unicode="&#xf0;" horiz-adv-x="681" 
d="M387 236v626q0 23 -11.5 40.5t-35.5 17.5q-45 0 -45 -58v-626q0 -58 45 -58q24 0 35.5 17.5t11.5 40.5zM270 1262l-135 -84l-45 75l121 76q-40 44 -96 92l188 117q9 -10 40 -41.5t50 -52.5l113 69l45 -75l-98 -62q194 -231 194 -540v-603q0 -118 -88.5 -182.5
t-218.5 -64.5q-131 0 -218 64.5t-87 182.5v603q0 120 67 198t158 78q69 0 102 -16q-26 82 -92 166z" />
    <glyph glyph-name="ntilde" unicode="&#xf1;" horiz-adv-x="681" 
d="M295 1171v-102h4q11 51 65 84t111 33q35 0 62 -7.5t45 -19t30.5 -32t19 -39.5t10 -49t4.5 -52t1 -57v-930h-260v911q0 25 -11.5 43.5t-35.5 18.5q-45 0 -45 -62v-911h-260v1171h260zM539 1511h82q0 -84 -57.5 -139t-141.5 -55q-23 0 -60 10t-67.5 19t-62 12t-54.5 -12.5
t-33 -51.5h-82q0 71 52 132t123 61q26 0 89 -15.5t85 -19.5q110 -19 127 59z" />
    <glyph glyph-name="ograve" unicode="&#xf2;" horiz-adv-x="681" 
d="M647 922v-672q0 -126 -88 -195t-219 -69q-132 0 -218.5 69t-86.5 195v672q0 126 86.5 195t218.5 69q131 0 219 -69t88 -195zM387 240v692q0 25 -11.5 43t-35.5 18q-45 0 -45 -61v-692q0 -62 45 -62q24 0 35.5 18.5t11.5 43.5zM358 1270l-280 276h198l195 -276h-113z" />
    <glyph glyph-name="oacute" unicode="&#xf3;" horiz-adv-x="681" 
d="M647 922v-672q0 -126 -88 -195t-219 -69q-132 0 -218.5 69t-86.5 195v672q0 126 86.5 195t218.5 69q131 0 219 -69t88 -195zM387 240v692q0 25 -11.5 43t-35.5 18q-45 0 -45 -61v-692q0 -62 45 -62q24 0 35.5 18.5t11.5 43.5zM367 1270h-113l195 276h198z" />
    <glyph glyph-name="ocircumflex" unicode="&#xf4;" horiz-adv-x="681" 
d="M647 922v-672q0 -126 -88 -195t-219 -69q-132 0 -218.5 69t-86.5 195v672q0 126 86.5 195t218.5 69q131 0 219 -69t88 -195zM387 240v692q0 25 -11.5 43t-35.5 18q-45 0 -45 -61v-692q0 -62 45 -62q24 0 35.5 18.5t11.5 43.5zM340 1442l-172 -172h-121l201 276h188
l197 -276h-119z" />
    <glyph glyph-name="otilde" unicode="&#xf5;" horiz-adv-x="681" 
d="M647 922v-672q0 -126 -88 -195t-219 -69q-132 0 -218.5 69t-86.5 195v672q0 126 86.5 195t218.5 69q131 0 219 -69t88 -195zM387 240v692q0 25 -11.5 43t-35.5 18q-45 0 -45 -61v-692q0 -62 45 -62q24 0 35.5 18.5t11.5 43.5zM539 1511h82q0 -84 -57.5 -139t-141.5 -55
q-23 0 -60 10t-67.5 19t-62 12t-54.5 -12.5t-33 -51.5h-82q0 71 52 132t123 61q26 0 89 -15.5t85 -19.5q110 -19 127 59z" />
    <glyph glyph-name="odieresis" unicode="&#xf6;" horiz-adv-x="681" 
d="M647 922v-672q0 -126 -88 -195t-219 -69q-132 0 -218.5 69t-86.5 195v672q0 126 86.5 195t218.5 69q131 0 219 -69t88 -195zM387 240v692q0 25 -11.5 43t-35.5 18q-45 0 -45 -61v-692q0 -62 45 -62q24 0 35.5 18.5t11.5 43.5zM268 1294h-192v224h192v-224zM606 1294h-192
v224h192v-224z" />
    <glyph glyph-name="divide" unicode="&#xf7;" horiz-adv-x="1138" 
d="M1071 467h-1003v238h1003v-238zM408 975q0 67 48.5 115.5t114.5 48.5q65 0 113.5 -49t48.5 -115q0 -62 -49 -112t-111 -50q-67 0 -116 48t-49 114zM408 197q0 67 48 114t115 47q65 0 113.5 -47.5t48.5 -113.5q0 -62 -49 -113t-111 -51q-67 0 -116 49t-49 115z" />
    <glyph glyph-name="oslash" unicode="&#xf8;" horiz-adv-x="681" 
d="M383 528l-88 -260v-28q0 -62 45 -62q24 0 35.5 18.5t11.5 43.5v288h-4zM299 684l86 258q0 21 -11.5 36t-33.5 15q-45 0 -45 -61v-248h4zM152 -139h-146l80 229q-51 67 -51 160v672q0 126 86.5 195t218.5 69q60 0 125 -19l51 146h148l-78 -221q61 -64 61 -170v-672
q0 -126 -88 -195t-219 -69q-74 0 -135 24z" />
    <glyph glyph-name="ugrave" unicode="&#xf9;" horiz-adv-x="681" 
d="M387 0v131h-4q0 -58 -52.5 -101.5t-113.5 -43.5q-182 0 -182 209v976h260v-911q0 -61 45 -61q24 0 35.5 18t11.5 43v911h260v-1171h-260zM358 1270l-280 276h198l195 -276h-113z" />
    <glyph glyph-name="uacute" unicode="&#xfa;" horiz-adv-x="681" 
d="M387 0v131h-4q0 -58 -52.5 -101.5t-113.5 -43.5q-182 0 -182 209v976h260v-911q0 -61 45 -61q24 0 35.5 18t11.5 43v911h260v-1171h-260zM367 1270h-113l195 276h198z" />
    <glyph glyph-name="ucircumflex" unicode="&#xfb;" horiz-adv-x="681" 
d="M387 0v131h-4q0 -58 -52.5 -101.5t-113.5 -43.5q-182 0 -182 209v976h260v-911q0 -61 45 -61q24 0 35.5 18t11.5 43v911h260v-1171h-260zM340 1442l-172 -172h-121l201 276h188l197 -276h-119z" />
    <glyph glyph-name="udieresis" unicode="&#xfc;" horiz-adv-x="681" 
d="M387 0v131h-4q0 -58 -52.5 -101.5t-113.5 -43.5q-182 0 -182 209v976h260v-911q0 -61 45 -61q24 0 35.5 18t11.5 43v911h260v-1171h-260zM268 1294h-192v224h192v-224zM606 1294h-192v224h192v-224z" />
    <glyph glyph-name="yacute" unicode="&#xfd;" horiz-adv-x="681" 
d="M430 1171h242l-185 -1183q-8 -55 -16.5 -89.5t-24 -65t-36.5 -47t-55.5 -28.5t-79.5 -16t-111 -4h-131v192h82q42 0 57.5 11t15.5 43q0 20 -2 34l-178 1153h260l72 -895h4zM367 1270h-113l195 276h198z" />
    <glyph glyph-name="thorn" unicode="&#xfe;" horiz-adv-x="681" 
d="M391 260v651q0 25 -11.5 43.5t-35.5 18.5q-45 0 -45 -62v-651q0 -61 45 -61q24 0 35.5 18t11.5 43zM299 1458v-409h4q12 61 56.5 99t103.5 38q58 0 97 -21.5t58 -61.5t26 -82t7 -97v-682q0 -55 -7 -96t-26 -80t-58 -59.5t-97 -20.5t-103 32.5t-57 83.5h-4v-364h-260v1720
h260z" />
    <glyph glyph-name="ydieresis" unicode="&#xff;" horiz-adv-x="681" 
d="M430 1171h242l-185 -1183q-8 -55 -16.5 -89.5t-24 -65t-36.5 -47t-55.5 -28.5t-79.5 -16t-111 -4h-131v192h82q42 0 57.5 11t15.5 43q0 20 -2 34l-178 1153h260l72 -895h4zM268 1294h-192v224h192v-224zM606 1294h-192v224h192v-224z" />
    <glyph glyph-name="dotlessi" unicode="&#x131;" horiz-adv-x="342" 
d="M301 0h-260v1171h260v-1171z" />
    <glyph glyph-name="Lslash" unicode="&#x141;" horiz-adv-x="606" 
d="M328 209h256v-209h-545v614l-64 -49v211l64 51v631h289v-397l94 74v-213l-94 -76v-637z" />
    <glyph glyph-name="lslash" unicode="&#x142;" horiz-adv-x="342" 
d="M301 1458v-534l72 53v-227l-72 -54v-696h-260v573l-66 -47v224l66 49v659h260z" />
    <glyph glyph-name="OE" unicode="&#x152;" horiz-adv-x="948" 
d="M717 1249v-334h203v-208h-203v-498h213v-209h-383q-33 -13 -80 -23q-43 -6 -90 -6q-55 0 -104 9t-92.5 29t-75 50.5t-50 76t-18.5 102.5v983q0 71 27.5 123.5t76 83t107.5 45t129 14.5q101 0 172 -29h381v-209h-213zM428 285v889q0 96 -51 96t-51 -96v-889q0 -97 51 -97
t51 97z" />
    <glyph glyph-name="oe" unicode="&#x153;" horiz-adv-x="1024" 
d="M381 240v692q0 25 -11.5 43t-35.5 18q-45 0 -45 -61v-692q0 -62 45 -62q24 0 35.5 18.5t11.5 43.5zM641 721h92v211q0 25 -11.5 43t-35.5 18q-45 0 -45 -61v-211zM993 909v-364h-352v-305q0 -62 45 -62q24 0 35.5 18.5t11.5 43.5v225h260v-203q0 -148 -78 -212t-233 -64
q-114 0 -166 34q-31 -16 -86 -25t-100 -9q-131 0 -216 68.5t-85 195.5v676q0 125 85 192.5t216 67.5q42 0 61 -0.5t56 -8.5t61 -24q33 16 67.5 24t52 8.5t58.5 0.5q152 0 229.5 -64.5t77.5 -212.5z" />
    <glyph glyph-name="Scaron" unicode="&#x160;" 
d="M715 938h-289v236q0 96 -51 96t-51 -96q2 -82 25 -144t58.5 -101.5t78 -74.5t84.5 -74.5t77 -90t56.5 -133t21.5 -191.5v-127q0 -57 -18.5 -102.5t-50 -76t-75 -50.5t-92.5 -29t-104 -9t-104 9t-92.5 29t-75 50.5t-50 76t-18.5 102.5v335h289v-288q0 -97 51 -97t51 97
q-1 95 -24 171t-58.5 125.5t-78 90.5t-84.5 77t-77 74t-57 92.5t-22 122.5v183q0 71 27.5 123.5t76 83t107.5 45t129 14.5t129 -14.5t107.5 -45t76 -83t27.5 -123.5v-283zM381 1638l147 183h154l-211 -277h-184l-197 277h172z" />
    <glyph glyph-name="scaron" unicode="&#x161;" horiz-adv-x="681" 
d="M393 764v168q0 61 -53 61q-51 0 -51 -61v-68q0 -41 20 -74t52 -56.5t71 -46.5t78 -52t71 -65.5t52 -94.5t20 -131v-94q0 -126 -89 -195t-224 -69q-129 0 -220 69.5t-91 194.5v194h260v-204q0 -62 51 -62q28 0 40.5 18t12.5 44v98q0 42 -20 76t-52 58.5t-71 47.5t-78 50.5
t-71 60t-52 82t-20 110.5v99q0 125 91 194.5t220 69.5q135 0 224 -69t89 -195v-158h-260zM342 1364l147 182h154l-211 -276h-184l-197 276h172z" />
    <glyph glyph-name="Ydieresis" unicode="&#x178;" 
d="M244 0v731l-240 727h303l92 -579h4l91 579h260l-222 -727v-731h-288zM307 1569h-192v223h192v-223zM645 1569h-192v223h192v-223z" />
    <glyph glyph-name="Zcaron" unicode="&#x17d;" horiz-adv-x="606" 
d="M596 209v-209h-576v209l263 1040h-275v209h576v-209l-277 -1040h289zM305 1638l148 183h153l-211 -277h-184l-197 277h172z" />
    <glyph glyph-name="zcaron" unicode="&#x17e;" horiz-adv-x="530" 
d="M231 979h-206v192h487v-192l-227 -786h227v-193h-494v193zM266 1364l148 182h153l-211 -276h-184l-197 276h172z" />
    <glyph glyph-name="florin" unicode="&#x192;" 
d="M248 856h-170v193h194q8 108 28.5 183.5t63 135.5t115.5 89.5t180 29.5q46 0 125 -23l-28 -209q-36 15 -90 15q-27 0 -47 -12t-30.5 -27.5t-18 -43.5t-9.5 -46t-4.5 -50.5t-3.5 -41.5h174v-193h-186q-10 -86 -27 -317.5t-35 -356.5q-11 -71 -25.5 -127.5t-42.5 -118.5
t-65 -103t-95.5 -68t-131.5 -27q-83 0 -146 24l29 207q21 -14 68 -14q27 0 47 13t30 25t18 44.5t9.5 43t5.5 48.5q1 11 2 16z" />
    <glyph glyph-name="circumflex" unicode="&#x2c6;" horiz-adv-x="342" 
d="M170 1442l-172 -172h-121l201 276h188l197 -276h-119z" />
    <glyph glyph-name="caron" unicode="&#x2c7;" horiz-adv-x="342" 
d="M172 1364l147 182h154l-211 -276h-184l-197 276h172z" />
    <glyph glyph-name="uni02C9" unicode="&#x2c9;" horiz-adv-x="342" 
d="M451 1337h-549v133h549v-133z" />
    <glyph glyph-name="breve" unicode="&#x2d8;" horiz-adv-x="342" 
d="M-115 1540h88q6 -41 25 -68t50.5 -39.5t61.5 -17t72 -4.5q166 0 197 125h86q-10 -130 -86 -195t-207 -65q-129 0 -204.5 68t-82.5 196z" />
    <glyph glyph-name="dotaccent" unicode="&#x2d9;" horiz-adv-x="342" 
d="M266 1294h-192v224h192v-224z" />
    <glyph glyph-name="ring" unicode="&#x2da;" horiz-adv-x="342" 
d="M-18 1493q0 73 53 131.5t127 58.5q81 0 139.5 -58.5t58.5 -131.5q0 -77 -57.5 -137t-136.5 -60q-78 0 -131 59t-53 138zM76 1491q0 -45 22.5 -72.5t67.5 -27.5q49 0 74.5 27.5t25.5 72.5q0 40 -30.5 69t-73.5 29q-40 0 -63 -28t-23 -70z" />
    <glyph glyph-name="ogonek" unicode="&#x2db;" horiz-adv-x="342" 
d="M176 0h111q-135 -65 -173 -94q-63 -48 -63 -111q0 -65 68 -65q76 0 164 45v-86q-113 -74 -240 -74q-54 0 -97.5 36t-43.5 111q0 73 69.5 139t204.5 99z" />
    <glyph glyph-name="tilde" unicode="&#x2dc;" horiz-adv-x="342" 
d="M369 1511h82q0 -84 -57.5 -139t-141.5 -55q-23 0 -60 10t-67.5 19t-62 12t-54.5 -12.5t-33 -51.5h-81q0 71 51.5 132t122.5 61q26 0 89 -15.5t85 -19.5q110 -19 127 59z" />
    <glyph glyph-name="hungarumlaut" unicode="&#x2dd;" horiz-adv-x="342" 
d="M297 1546l-260 -276h-111l168 276h203zM629 1546l-305 -276h-103l203 276h205z" />
    <glyph glyph-name="uni03A9" unicode="&#x3a9;" horiz-adv-x="905" 
d="M197 225v6q-62 116 -102 269t-40 323q0 179 47.5 328t141 240.5t215.5 91.5q81 0 147.5 -40.5t109 -105.5t71.5 -149.5t41 -169t12 -168.5q0 -174 -42 -342t-100 -277v-6h166v-225h-364v160q37 53 61 205q31 179 31 413q0 465 -141 465q-74 0 -112 -128.5t-38 -348.5
q0 -218 29 -383.5t65 -222.5v-160h-362v225h164z" />
    <glyph glyph-name="uni03BC" unicode="&#x3bc;" horiz-adv-x="681" 
d="M35 -262v1433h260v-911q0 -61 45 -61q24 0 35.5 18t11.5 43v911h260v-1171h-256v131h-6q-3 -36 -29 -68q-21 -34 -61 -55v-270h-260z" />
    <glyph glyph-name="pi" unicode="&#x3c0;" horiz-adv-x="892" 
d="M860 862h-88v-600q0 -158 19 -262h-230q-29 77 -29 266v596h-147q-6 -187 -28.5 -431.5t-61.5 -430.5h-229q37 200 60.5 448t25.5 414q-65 0 -115 -12l-27 186q34 29 102 49.5t156 20.5h604z" />
    <glyph glyph-name="endash" unicode="&#x2013;" horiz-adv-x="1024" 
d="M1024 545h-1024v180h1024v-180z" />
    <glyph glyph-name="emdash" unicode="&#x2014;" horiz-adv-x="2048" 
d="M2048 545h-2048v180h2048v-180z" />
    <glyph glyph-name="quoteleft" unicode="&#x2018;" horiz-adv-x="342" 
d="M150 936l-132 522h248l58 -522h-174z" />
    <glyph glyph-name="quoteright" unicode="&#x2019;" horiz-adv-x="342" 
d="M193 936h-175l58 522h248z" />
    <glyph glyph-name="quotesinglbase" unicode="&#x201a;" horiz-adv-x="342" 
d="M193 -219h-175l58 522h248z" />
    <glyph glyph-name="quotedblleft" unicode="&#x201c;" horiz-adv-x="681" 
d="M147 936l-131 522h248l58 -522h-175zM489 936l-131 522h248l58 -522h-175z" />
    <glyph glyph-name="quotedblright" unicode="&#x201d;" horiz-adv-x="681" 
d="M193 936h-175l58 522h248zM535 936h-175l58 522h248z" />
    <glyph glyph-name="quotedblbase" unicode="&#x201e;" horiz-adv-x="681" 
d="M193 -219h-175l58 522h248zM535 -219h-175l58 522h248z" />
    <glyph glyph-name="dagger" unicode="&#x2020;" horiz-adv-x="872" 
d="M41 1034h266v424h260v-424h264v-250h-264v-934h-260v934h-266v250z" />
    <glyph glyph-name="daggerdbl" unicode="&#x2021;" horiz-adv-x="872" 
d="M307 -127v367h-266v249h266v349h-266v249h266v371h260v-371h264v-249h-264v-349h264v-249h-264v-367h-260z" />
    <glyph glyph-name="bullet" unicode="&#x2022;" horiz-adv-x="1024" 
d="M870 729q0 -149 -104.5 -253.5t-253.5 -104.5q-150 0 -254 104t-104 254q-2 149 102.5 253.5t255.5 104.5q149 0 253.5 -104.5t104.5 -253.5z" />
    <glyph glyph-name="ellipsis" unicode="&#x2026;" horiz-adv-x="2048" 
d="M471 0h-260v303h260v-303zM1153 0h-260v303h260v-303zM1835 0h-260v303h260v-303z" />
    <glyph glyph-name="perthousand" unicode="&#x2030;" horiz-adv-x="1554" 
d="M1264 522v-354q0 -49 41 -49t41 49v354q0 49 -41 49t-41 -49zM1079 217v256q0 217 226 217q225 0 225 -217v-256q0 -217 -225 -217q-226 0 -226 217zM745 522v-354q0 -49 41 -49t41 49v354q0 49 -41 49t-41 -49zM561 217v256q0 217 225 217q226 0 226 -217v-256
q0 -217 -226 -217q-225 0 -225 217zM23 985v256q0 217 225 217t225 -217v-256q0 -217 -225 -217t-225 217zM207 1290v-354q0 -49 41 -49t41 49v354q0 49 -41 49t-41 -49zM158 -29l598 1516h133l-598 -1516h-133z" />
    <glyph glyph-name="guilsinglleft" unicode="&#x2039;" horiz-adv-x="342" 
d="M315 1096v-277l-178 -184l178 -184v-277l-288 324v274z" />
    <glyph glyph-name="guilsinglright" unicode="&#x203a;" horiz-adv-x="342" 
d="M27 819v277l288 -324v-274l-288 -324v277l178 184z" />
    <glyph glyph-name="fraction" unicode="&#x2044;" horiz-adv-x="266" 
d="M-252 -29l658 1516h139l-651 -1516h-146z" />
    <glyph glyph-name="Euro" unicode="&#x20ac;" 
d="M102 238v260h-122l40 153h82v164h-122l40 154h82v252q0 131 101 202q89 64 250 64q114 0 186 -25q74 -26 119 -71l-66 -222q-25 46 -78 76q-49 25 -102 25q-66 0 -96 -37q-25 -31 -25 -90v-174h256l-41 -154h-215v-164h180l-41 -153h-139v-174q0 -63 31 -99
q33 -37 106 -37q51 0 107 23q55 22 102 72v-238q-41 -29 -104 -47q-91 -27 -184 -27q-157 0 -244 62q-103 74 -103 205z" />
    <glyph glyph-name="afii61289" unicode="&#x2113;" horiz-adv-x="743" 
d="M647 340l86 -102q-101 -261 -293 -261q-67 0 -118.5 19.5t-83.5 52.5t-52.5 79t-28.5 95t-7 105v28q-7 -8 -76 -77l-51 137q100 107 127 147v551q0 232 84 361t208 129q98 0 147.5 -97.5t49.5 -267.5q0 -162 -66.5 -337.5t-185.5 -344.5v-147q0 -228 107 -228q41 0 77 42
t76 116zM387 1047v-234q61 111 96 234t35 219q0 75 -13.5 107t-47.5 32q-70 0 -70 -358z" />
    <glyph glyph-name="trademark" unicode="&#x2122;" horiz-adv-x="2048" 
d="M778 1458v-188h-227v-656h-250v656h-227v188h704zM1290 1458l183 -489l182 489h319v-844h-221v553h-4l-186 -553h-181l-186 553h-4v-553h-221v844h319z" />
    <glyph glyph-name="Omega" unicode="&#x2126;" horiz-adv-x="905" 
d="M197 225v6q-62 116 -102 269t-40 323q0 179 47.5 328t141 240.5t215.5 91.5q81 0 147.5 -40.5t109 -105.5t71.5 -149.5t41 -169t12 -168.5q0 -174 -42 -342t-100 -277v-6h166v-225h-364v160q37 53 61 205q31 179 31 413q0 465 -141 465q-74 0 -112 -128.5t-38 -348.5
q0 -218 29 -383.5t65 -222.5v-160h-362v225h164z" />
    <glyph glyph-name="estimated" unicode="&#x212e;" horiz-adv-x="1826" 
d="M1755 709h-1364q-10 0 -10 -11v-411q0 -28 16 -47q103 -106 236 -166t280 -60q159 0 299.5 67.5t243.5 184.5h121q-115 -135 -291 -214t-375 -79q-171 0 -326.5 60t-268 161t-178.5 241t-66 294t66 294.5t178.5 242t268 161.5t326.5 60q138 0 267 -38.5t232.5 -108.5
t181.5 -163t120.5 -209t42.5 -239v-20zM1446 762v414q0 26 -21 51q-104 101 -235 158t-277 57t-278.5 -59.5t-235.5 -163.5q-18 -18 -18 -52v-405q0 -4 3 -9t7 -5h1045q4 0 7 5t3 9z" />
    <glyph glyph-name="partialdiff" unicode="&#x2202;" horiz-adv-x="870" 
d="M168 1329l-57 223q116 107 266 107q62 0 119.5 -26t111 -86t92.5 -148t62.5 -221.5t23.5 -298.5q0 -445 -106 -669t-309 -224q-93 0 -164 69t-106 177.5t-35 236.5q0 134 27.5 243.5t73.5 178.5t104 106t120 37q57 0 98 -28.5t58 -65.5h2v57q0 74 -13.5 149t-38.5 139.5
t-65.5 104.5t-89.5 40q-51 0 -91.5 -27t-82.5 -74zM393 221h2q41 0 73 77t47.5 181.5t19.5 220.5q-9 43 -35.5 76t-67.5 33t-70.5 -54.5t-43 -134t-13.5 -171.5q0 -102 22.5 -165t65.5 -63z" />
    <glyph glyph-name="Delta" unicode="&#x2206;" horiz-adv-x="929" 
d="M43 0v160l291 1327h284l267 -1321v-166h-842zM281 219h368l-104 504q-9 67 -38.5 206.5t-35.5 184.5h-2q-5 -48 -34 -175t-40 -189z" />
    <glyph glyph-name="product" unicode="&#x220f;" horiz-adv-x="1083" 
d="M1032 1210h-123v-1413h-250v1413h-237v-1413h-248v1413h-123v254h981v-254z" />
    <glyph glyph-name="summation" unicode="&#x2211;" horiz-adv-x="802" 
d="M772 -203h-727v191l326 653l-322 627v196h701v-223h-396v-6l285 -533l-334 -636v-5h467v-264z" />
    <glyph glyph-name="minus" unicode="&#x2212;" horiz-adv-x="1138" 
d="M68 467v238h1003v-238h-1003z" />
    <glyph glyph-name="uni2215" unicode="&#x2215;" horiz-adv-x="266" 
d="M-252 -29l658 1516h139l-651 -1516h-146z" />
    <glyph glyph-name="uni2219" unicode="&#x2219;" horiz-adv-x="378" 
d="M197 752q67 0 115 -49.5t48 -116.5q0 -72 -50 -124t-122 -52q-74 0 -123 50t-49 124q0 70 55 119t126 49z" />
    <glyph glyph-name="radical" unicode="&#x221a;" horiz-adv-x="919" 
d="M909 1776l-319 -2044h-191l-194 895l-113 -45l-35 159l301 119l105 -549q4 -35 16 -115.5t13 -105.5l4 -2q17 191 24 238l228 1450h161z" />
    <glyph glyph-name="infinity" unicode="&#x221e;" horiz-adv-x="1341" 
d="M1260 604v-2q0 -144 -84.5 -230.5t-198.5 -86.5q-56 0 -99 13t-96 56t-106 121q-71 -95 -145 -142.5t-173 -47.5q-113 0 -195.5 86t-82.5 221q0 140 83 226.5t210 86.5q93 0 163 -44.5t140 -139.5q28 34 41 49t46.5 46.5t61 46.5t71 28.5t89.5 13.5q116 0 195.5 -83
t79.5 -218zM377 426h2q61 0 108.5 38.5t110.5 119.5q-68 96 -94 123q-58 59 -131 59t-112.5 -48.5t-39.5 -127.5q0 -68 46 -116t110 -48zM971 766h-2q-21 0 -40.5 -5t-39 -18t-32.5 -22t-32.5 -30.5t-27 -29.5t-27.5 -33t-22 -28q75 -104 119.5 -139t111.5 -35
q63 0 101 53.5t38 112.5q0 74 -40 124t-107 50z" />
    <glyph glyph-name="integral" unicode="&#x222b;" horiz-adv-x="729" 
d="M649 1798l-22 -196q-32 12 -47 12q-47 0 -74 -53q-21 -35 -28 -117t-7 -230q0 -169 9 -483.5t9 -515.5q0 -312 -51 -426q-33 -82 -98.5 -119t-142.5 -37q-69 0 -125 29l30 203q35 -15 58 -15q42 0 59 39q29 59 29 314q0 202 -10.5 526.5t-10.5 505.5q0 189 22.5 298
t76.5 181q36 47 96 74t123 27q55 0 104 -17z" />
    <glyph glyph-name="approxequal" unicode="&#x2248;" horiz-adv-x="815" 
d="M674 905l86 -67q-27 -88 -85 -146.5t-126 -58.5q-42 0 -77 13.5t-85 51.5q-45 36 -69.5 50t-55.5 14q-14 0 -25.5 -3.5t-22 -12t-17.5 -15t-16 -22.5t-13 -22.5t-13.5 -26.5t-11.5 -25l-88 67q33 90 90.5 145.5t130.5 55.5q19 0 38 -3.5t32 -7.5t29 -12.5t23 -12.5
t21 -13.5t17 -11.5q10 -7 28 -20t27 -19t22 -13.5t22.5 -10.5t19.5 -3q26 0 48.5 20t32 35.5t31.5 60.5q5 9 7 13zM674 569l86 -69q-27 -87 -85 -146t-126 -59q-40 0 -75.5 14t-86.5 51q-60 48 -81 57t-44 9q-15 0 -29 -6t-23 -13.5t-20 -24t-16 -25t-16 -31t-15 -29.5
l-88 68q32 89 90 144.5t131 55.5q23 0 44 -3.5t40.5 -13t28.5 -14t27.5 -17.5t19.5 -13q12 -8 34.5 -23.5t33.5 -22.5t26 -13.5t27 -6.5q47 0 84 66q9 15 33 65z" />
    <glyph glyph-name="notequal" unicode="&#x2260;" horiz-adv-x="815" 
d="M616 1001l-53 -143h178v-151h-223l-86 -230h309v-151h-354l-68 -179l-112 37l55 142h-188v151h233l84 230h-317v151h362l68 178z" />
    <glyph glyph-name="lessequal" unicode="&#x2264;" horiz-adv-x="815" 
d="M735 209l-651 409v164l651 410v-184l-522 -306v-4l522 -305v-184zM745 -12h-667v153h667v-153z" />
    <glyph glyph-name="greaterequal" unicode="&#x2265;" horiz-adv-x="815" 
d="M90 1192l651 -410v-164l-649 -409v184l520 305v4l-522 306v184zM748 -12h-668v153h668v-153z" />
    <glyph glyph-name="lozenge" unicode="&#x25ca;" horiz-adv-x="915" 
d="M838 731l-285 -819h-209l-264 819l285 821h210zM614 725l-114 424q-24 102 -29 164h-10q-11 -87 -31 -164l-127 -412l119 -436q15 -78 24 -154h13q4 37 26 148z" />
    </font>
</defs>
</svg>
